Софт-Архив

скачать кот баюн торрент

Рейтинг: 4.2/5.0 (143 проголосовавших)

Категория: Торрент-файлы

Описание

Кот-Баюн - Сильнее зла ( Метал

Скачать кот баюн торрент

О музыке: Группа «Кот-Баюн» исполняет фолк-метал, основанный на славянской культуре. В творчестве коллектива повествуется об отваге и храбрости героев древности, о славных битвах и богатых пирах, о всесильных богах и празднованиях в их честь. Тяжесть гитарных рифов, мощь волынки, энергия ударной установки и мелодичность флейты делает музыку группы узнаваемой и запоминающейся; особенно стоит отметить «чистые» вокальные партии, что так нечасто встречаются среди представителей этого жанра.


«Кот-Баюн» — кот-людоед, мифологическое существо, обладающий волшебным голосом, способным усыплять неудачливых путников.

Нажмите чтобы закрыть спойлер: Знаете ли вы


01. Было Время
02. Молитва Перед Боем
03. Память
04. На Поле Куликовом
05. Сокол
06. Ближе К Облакам (Guano Apes Cover)
07. Тени Забытого
08. Шут
09. В Царстве Снов
10. Солнцестояние (Butterfly Temple Cover)
11. Кикимора

Нажмите чтобы закрыть спойлер: Список песен

скачать кот баюн торрент:

  • скачать
  • скачать
  • Другие статьи

    Скачать Кот-Баюн - Сильнее зла (2016) FLAC, lossless, image

    - Кот-Баюн - Сильнее зла (2016) -

    Скачать кот баюн торрент

    Страна: Россия
    Год Выпуска: 2016
    Лейбл: SoundAge
    Номер по каталогу: SAPCD320
    Жанр: Folk-Metal
    Продолжительность: 00:40:14
    Кодек: FLAC
    Битрейт: Lossless
    Тип рипа: image + .cue
    Треклист:
    01. There Was A Time (04:05)
    02. Prayer Before The Battle (02:08)
    03. Memory (03:20)
    04. On the Kulikov Field (02:48)
    05. Falkon (03:20)
    06. Shadows Of Forgotten (03:14)
    07. In The Realm Of Dreams (05:10)
    08. Buffoon (04:41)
    09. Closer To The Clouds (03:07)
    10. Solstice (04:04)
    11. Kikimora (04:14)

    Отчет EAC:

    Exact Audio Copy V1.0 beta 3 from 29. August 2011
    EAC extraction logfile from 17. December 2016, 4:39
    Kot-Bayun / Stronger Than Evil
    Used drive. MATSHITABD-CMB UJ242AS Adapter: 0 ID: 1
    Read mode. Secure
    Utilize accurate stream. Yes
    Defeat audio cache. Yes
    Make use of C2 pointers. No
    Read offset correction. 103
    Overread into Lead-In and Lead-Out. No
    Fill up missing offset samples with silence. Yes
    Delete leading and trailing silent blocks. No
    Null samples used in CRC calculations. Yes
    Used interface. Installed external ASPI interface
    Used output format. User Defined Encoder
    Selected bitrate. 1024 kBit/s
    Quality. High
    Add ID3 tag. Yes
    Command line compressor. C:\Program Files (x86)\Exact Audio Copy\Flac\flac.exe
    Additional command line options. -V -8 -T "Date=%year%" -T "Genre=%genre%" %source%
    TOC of the extracted CD
    Track | Start | Length | Start sector | End sector
    ---------------------------------------------------------
    1 | 0:00.00 | 4:05.37 | 0 | 18411
    2 | 4:05.37 | 2:08.00 | 18412 | 28011
    3 | 6:13.37 | 3:20.37 | 28012 | 43048
    4 | 9:33.74 | 2:48.00 | 43049 | 55648
    5 | 12:21.74 | 3:20.00 | 55649 | 70648
    6 | 15:41.74 | 3:14.53 | 70649 | 85251
    7 | 18:56.52 | 5:10.00 | 85252 | 108501
    8 | 24:06.52 | 4:41.00 | 108502 | 129576
    9 | 28:47.52 | 3:07.37 | 129577 | 143638
    10 | 31:55.14 | 4:04.67 | 143639 | 162005
    11 | 36:00.06 | 4:14.23 | 162006 | 181078
    Range status and errors
    Selected range
    Filename C:\EACrip\Kot-Bayun - Stronger Than Evil.wav
    Peak level 100.0 %
    Extraction speed 3.9 X
    Range quality 100.0 %
    Test CRC 59B8D803
    Copy CRC 59B8D803
    Copy OK
    No errors occurred
    AccurateRip summary
    Track 1 not present in database
    Track 2 not present in database
    Track 3 not present in database
    Track 4 not present in database
    Track 5 not present in database
    Track 6 not present in database
    Track 7 not present in database
    Track 8 not present in database
    Track 9 not present in database
    Track 10 not present in database
    Track 11 not present in database
    None of the tracks are present in the AccurateRip database
    End of status report
    ==== Log checksum 5E869582D3B7D9487453E854BB5EE34F139364C6D3B153B36A6C64E54C42B497 ====

    CUE:

    REM GENRE Metal
    REM DATE 2016
    REM DISCID 9B096E0B
    REM COMMENT "ExactAudioCopy v1.0b3"
    PERFORMER "Kot-Bayun"
    TITLE "Stronger Than Evil"
    FILE "Kot-Bayun - Stronger Than Evil.flac" WAVE
    TRACK 01 AUDIO
    TITLE "There Was A Time"
    PERFORMER "Kot-Bayun"
    INDEX 01 00:00:00
    TRACK 02 AUDIO
    TITLE "Prayer Before The Battle"
    PERFORMER "Kot-Bayun"
    INDEX 01 04:05:37
    TRACK 03 AUDIO
    TITLE "Memory"
    PERFORMER "Kot-Bayun"
    INDEX 01 06:13:37
    TRACK 04 AUDIO
    TITLE "On the Kulikov Field"
    PERFORMER "Kot-Bayun"
    INDEX 01 09:33:74
    TRACK 05 AUDIO
    TITLE "Falkon"
    PERFORMER "Kot-Bayun"
    INDEX 01 12:21:74
    TRACK 06 AUDIO
    TITLE "Shadows Of Forgotten"
    PERFORMER "Kot-Bayun"
    INDEX 01 15:41:74
    TRACK 07 AUDIO
    TITLE "In The Realm Of Dreams"
    PERFORMER "Kot-Bayun"
    INDEX 01 18:56:52
    TRACK 08 AUDIO
    TITLE "Buffoon"
    PERFORMER "Kot-Bayun"
    INDEX 01 24:06:52
    TRACK 09 AUDIO
    TITLE "Closer To The Clouds"
    PERFORMER "Kot-Bayun"
    INDEX 01 28:47:52
    TRACK 10 AUDIO
    TITLE "Solstice"
    PERFORMER "Kot-Bayun"
    INDEX 01 31:55:14
    TRACK 11 AUDIO
    TITLE "Kikimora"
    PERFORMER "Kot-Bayun"
    INDEX 01 36:00:06

    Отчет auCDtect Task manager:

    -----------------------
    DON'T MODIFY THIS FILE
    -----------------------
    PERFORMER: auCDtect Task Manager, ver. 1.6.0 RC1 build 1.6.0.1
    Copyright (c) 2008-2010 y-soft. All rights reserved
    http://y-soft.org
    ANALYZER: auCDtect: CD records authenticity detector, version 0.8.2
    Copyright (c) 2004 Oleg Berngardt. All rights reserved.
    Copyright (c) 2004 Alexander Djourik. All rights reserved.
    FILE: Kot-Bayun - Stronger Than Evil.flac
    Size: 291143547 Hash: 52DC341D6DD15FF5DA6253F82FB4BB0B Accuracy: -m0
    Conclusion: CDDA 100%
    Signature: 3D853B37D1C8FB82C96EEB2934B0745C4AC00453

    Время раздачи: с 09:00 до 23:00 (UTC\GTM+2)

    Folk Metal) CD Кот-Баюн - Сильнее зла - 2016, FLAC (image

    mart0372 · 24-Дек-16 09:01 (8 месяцев назад)

    Кот-Баюн / Сильнее зла
    Жанр. Folk Metal
    Носитель. CD
    Страна-производитель диска (релиза). Россия
    Год издания. 2016
    Издатель (лейбл). SoundAge
    Номер по каталогу. SAPCD320
    Страна исполнителя (группы). Россия
    Аудиокодек. FLAC (*.flac)
    Тип рипа. image+.cue
    Битрейт аудио. lossless
    Продолжительность. 40:14
    Источник (релизер). rd
    Наличие сканов в содержимом раздачи. дa
    Треклист.
    01. Было Время
    02. Молитва Перед Боем
    03. Память
    04. На Поле Куликовом
    05. Сокол
    06. Ближе К Облакам (Guano Apes Cover)
    07. Тени Забытого
    08. Шут
    09. В Царстве Снов
    10. Солнцестояние (Butterfly Temple Cover)
    11. Кикимора

    Лог создания рипа

    Скачать кот баюн торрентСкачать раздачу по magnet-ссылке · 293.5 MB

    Чтобы скачать .torrent файл необходима регистрация

    Сайт не распространяет и не хранит электронные версии произведений, а лишь предоставляет доступ к создаваемому пользователями каталогу ссылок на торрент-файлы. которые содержат только списки хеш-сумм

    Федоров-Давыдов Александр - Сказки Кота-Баюна Скачать торрентом бесплатно

    sendoka · 02-Фев-14 19:39 (3 года 7 месяцев назад, ред. 02-Фев-14 20:25)

    Сказки Кота-Баюна Год выпуска. 2013 г.
    Фамилия автора. Федоров-Давыдов
    Имя автора. Александр
    Исполнитель. Виталий Толубеев
    Жанр. Детская литература, сказки
    Издательство. Седьмая книга
    Категория. аудиокнига
    Аудиокодек. MP3
    Битрейт. 192 kbps
    Вид битрейта. постоянный битрейт (CBR)
    Частота дискретизации. 44 kHz
    Количество каналов. Стерео
    Музыкальное сопровождение. нет
    Время звучания. 03:46:24 Описание. За морями, за долами, за высокими горами да за тридевять земель в тридесятом царстве, в лесу густом, но сухом, на дереве высоком сидел кот Баюн, мурлыкал – распевал и добычу завлекал. Заговаривал, усыплял, всех волшбе своей пленял. Замечательные сказки русского писателя Александра Федорова-Давыдова познакомят маленького слушателя со сказочными героями волшебного русского леса – серьезным и умным мышонком Пипом, веселым воробышком Чирчилом, доброй белкой Чоксей, и еще со многими героями замечательных и мудрых историй о добре и находчивости, любви и отваге, дружбе и бескорыстной помощи.

    01. Сказки Кота-Баюна. Заглавие
    02. Счастье в лапте
    03. Отходчивое сердце
    04. Приемыш бабушки Белши
    05. Одиночество
    06. Две семьи
    07. Приключения Зайчика-крошки
    08. Важная птица
    09. Хомяк-богатей
    10. То же, да не то
    11. Дальние родственники
    12. На новую жизнь
    13. К намеченной цели
    14. Старый бродяга
    15. Ласточкино гнездо
    16. Медвежья шкура
    17. Летучая родственница
    18. Стог сена
    19. Недовольный барсук
    20. Тараканья сила
    21. Черный кот
    22. Вольная птица
    23. Зеленый богатырь

    Скачать кот баюн торрентСкачать раздачу по magnet-ссылке · 315.8 MB

    Чтобы скачать .torrent файл необходима регистрация

    Сайт не распространяет и не хранит электронные версии произведений, а лишь предоставляет доступ к создаваемому пользователями каталогу ссылок на торрент-файлы. которые содержат только списки хеш-сумм

    Кот Баюн Инструкция

    Найдено 37 файлов по запросу «кот баюн инструкция »

    Кот Баюн Инструкция

    Адвантикс (Advantix) Азинокс (Azinox) Беговая дорожка для собаки (инструкция) Вермокс Витакан Вормил (Vormil) Декарис (Levamisole) Дронтал Плюс Иммунофан Кинорон Кот Баюн (Kot Bayun) Лактобифадол Левомеколь Орицин Пирантел (Pyrantel) Празител суспензия Празицид Ронколейкин Стронгхолд (Stronghold) Сульфокамфокаин (Sulfocamphocainum) Суперкубатол Тройчатка Эвалар — БАД Фронтлайн спрей, Frontline spray, Fipronil 0,25% Фронтлайн СПОТ ОН (капли на холку) Экзекан © При полном carla's dreams sub pielea mea скачать на звонок или частичном копировании статей или графики прямая гиперссылка на www.CleverDog.ru magic touch скачать на андроид — обязательна!

    16818 статей по запросу «кот баюн инструкция »

    Скачать кот баюн торрент

    Кот Баюн настой, уп. 3 фл. по 10 мл. Препараты других.

    Кот Баюн не содержит консервантов, поэтому при его применении следует соблюдать следующие требования: флакон откупоривают, надевают на его.

    Скачать кот баюн торрент

    ВЕДА - натуральные технологии здоровья - КОТ БАЮН® таблетки

    ИНСТРУКЦИЯ по применению лекарственного препарата Кот Баюн® таблетки для коррекции нарушений.

    Скачать кот баюн торрент

    Кот Баюн для кошек таблетки или капли, инструкция, отзывы.

    Назначение и инструкция по применению успокающего препарата Кот Баюн для кошек. Отзывы заводчиков.

    Скачать кот баюн торрент

    Кот Баюн, тбл. №50. Цены, описание и отзывы о КОТ БАЮН.

    Описание и инструкция: к "КОТ БАЮН, тбл. №50". Описание. Кот Баюн (Kot Bayun) таблетки – лекарственное средство, предназначенное для коррекции.

    Скачать кот баюн торрент

    Капли Фитекс для кошек, цены, отзывы, инструкция | Кошки - кто.

    Цены на капли Фитекс для кошек, инструкция по применению, отзывы. Если перед вами стоит выбор – Фитекс или Кот Баюн (лекарство, имеющее.

    Скачать кот баюн торрент

    Кот Баюн (3 фл.х 10 мл), р-р

    Инструкция по применению фитопрепарата Кот Баюн для кошек и собак. I. Общие сведения: 1. Кот Баюн (Kot Bayun) настой – лекарственное средство.