Софт-Архив

аукцыон на солнце скачать торрент

Рейтинг: 4.6/5.0 (642 проголосовавших)

Категория: Торрент-файлы

Описание

АукцЫон - На солнце (2016) - новый альбом торрент

АукцЫон - На солнце (2016) - новый альбом торрент

Аукцыон на солнце скачать торрент


Новый альбом АукцЫона официально выйдет только 1 июня, но вы уже сейчас можете скачать его через торрент. Если вы являетесь поклонником группы АукцЫон, то знаете, что это старая русская рок-группа, основанная еще в СССР в 1978 году, и то, что она играет довольно специфическую музыку. Вообще стиль группы можно назвать как экспериментальный, альтернативный и даже психоделический рок, как арт и авангард с частичками джаза. Если вы в свое время услышали лучшие песни АукцЫона, то вы уже просто никогда не сможете не любить эту группу. Если для вас этот момент еще не наступил, то, может быть, он наступит после прослушивания нового альбома под названием На солнце.

Список композиций:
01. Сынок
02. И день и ночь
03. Пропал
04. Луна упала
05. Чайки
06. Плыть
07. На солнце
08. Мир тает

Год: 2016
Жанр: рок
Страна: Россия
Длительность: 01:03:46
Формат: MP3
Битрейт аудио: 128 kbps
Размер: 59.81 Мб

Скачать торрент АукцЫон - На солнце (2016) - новый альбом:
Aukcion-Na_solnce_2016.torrent [19,75 Kb] (cкачиваний: 590)

Похожие по теме публикации:

аукцыон на солнце скачать торрент:

  • скачать
  • скачать
  • Другие статьи

    Скачать АукцЫон - На солнце (2016) FLAC, Lossless, image

    Аукцыон на солнце скачать торрент

    Год: 2016
    Жанр: Rock
    Издание: Геометрия - GEO 099 CD
    Продолжительность: 01:02:25
    Источник: ley-barmaley
    Кодек: FLAC
    Битрейт: Lossless
    Тип рипа: image + .cue
    Наличие сканов: Да
    Треклист:
    01. Сынок
    02. И день и ночь
    03. Пропал
    04. Луна упала
    05. Чайки
    06. Плыть
    07. На солнце
    08. Мир тает

    Отчёт EAC:

    Exact Audio Copy V1.0 beta 3 from 29. August 2011
    Отчёт EAC об извлечении, выполненном 2. июня 2016, 18:30
    АукцЫон / На Солнце (GEO 099 CD)
    Дисковод: ASUS DRW-1814BL Adapter: 0 ID: 0
    Режим чтения : Достоверность
    Использование точного потока : Да
    Отключение кэша аудио : Да
    Использование указателей C2 : Нет
    Коррекция смещения при чтении : 6
    Способность читать области Lead-in и Lead-out : Нет
    Заполнение пропущенных сэмплов тишиной : Да
    Удаление блоков с тишиной в начале и конце : Нет
    При вычислениях CRC использовались нулевые сэмплы : Да
    Интерфейс : Встроенный Win32-интерфейс для Win NT/2000
    Выходной формат : Внутренние WAV-операции
    Формат сэмплов : 44.100 Гц; 16 бит; стерео
    TOC извлечённого CD
    Трек | Старт | Длительность | Начальный сектор | Конечный сектор
    ---------------------------------------------------------------------
    1 | 0:00.00 | 6:04.68 | 0 | 27367
    2 | 6:04.68 | 9:44.34 | 27368 | 71201
    3 | 15:49.27 | 7:15.31 | 71202 | 103857
    4 | 23:04.58 | 6:36.38 | 103858 | 133595
    5 | 29:41.21 | 7:01.62 | 133596 | 165232
    6 | 36:43.08 | 7:08.56 | 165233 | 197388
    7 | 43:51.64 | 8:05.74 | 197389 | 233837
    8 | 51:57.63 | 10:26.14 | 233838 | 280801
    Характеристики диапазона извлечения и сообщения об ошибках
    Выбранный диапазон
    Имя файла G:\ley-barmaley\lossless-galaxy.ru\АукцЫон - На Солнце (GEO 099 CD).wav
    Пиковый уровень 99.8 %
    Скорость извлечения 5.0 X
    Качество диапазона 99.9 %
    CRC теста 7313C013
    CRC копии 7313C013
    Копирование. OK
    Ошибок не произошло
    AccurateRip: сводка
    Трек 1 отсутствует в базе данных
    Трек 2 отсутствует в базе данных
    Трек 3 отсутствует в базе данных
    Трек 4 отсутствует в базе данных
    Трек 5 отсутствует в базе данных
    Трек 6 отсутствует в базе данных
    Трек 7 отсутствует в базе данных
    Трек 8 отсутствует в базе данных
    Ни одного трека нет в базе AccurateRip
    Конец отчёта
    ---- CUETools DB Plugin V2.1.3
    [CTDB TOCID: 5IfYcfq0XMHGmmCRCWDTz5g8JIc-] found, Submit result: 5IfYcfq0XMHGmmCRCWDTz5g8JIc- has been confirmed
    [18345e99] (1/1) Accurately ripped
    ==== Контрольная сумма отчёта 2867BB2E06E17FA2599293984058D1FD05E5091252DC176E22D4576D6A0F2A4B ====

    Cue Sheet (.cue):

    REM GENRE "Rock"
    REM DATE 2016
    REM DISCID 6A0EA008
    REM COMMENT "ExactAudioCopy v1.0b3"
    PERFORMER "АукцЫон"
    TITLE "На Солнце (Геометрия, GEO 099 CD)"
    FILE "АукцЫон - На Солнце (GEO 099 CD).flac" WAVE
    TRACK 01 AUDIO
    TITLE "Сынок"
    PERFORMER "АукцЫон"
    INDEX 01 00:00:00
    TRACK 02 AUDIO
    TITLE "И день и ночь"
    PERFORMER "АукцЫон"
    INDEX 01 06:04:68
    TRACK 03 AUDIO
    TITLE "Пропал"
    PERFORMER "АукцЫон"
    INDEX 00 15:45:32
    INDEX 01 15:49:27
    TRACK 04 AUDIO
    TITLE "Луна упала"
    PERFORMER "АукцЫон"
    INDEX 00 23:02:07
    INDEX 01 23:04:58
    TRACK 05 AUDIO
    TITLE "Чайки"
    PERFORMER "АукцЫон"
    INDEX 01 29:41:21
    TRACK 06 AUDIO
    TITLE "Плыть"
    PERFORMER "АукцЫон"
    INDEX 01 36:43:08
    TRACK 07 AUDIO
    TITLE "На Солнце"
    PERFORMER "АукцЫон"
    INDEX 01 43:51:64
    TRACK 08 AUDIO
    TITLE "Мир тает"
    PERFORMER "АукцЫон"
    INDEX 00 51:57:38
    INDEX 01 51:57:63

    Отчёт auCDtect Task manager:

    -----------------------
    DON'T MODIFY THIS FILE
    -----------------------
    PERFORMER: auCDtect Task Manager, ver. 1.6.0 RC1 build 1.6.0.1
    Copyright (c) 2008-2010 y-soft. All rights reserved
    http://y-soft.org
    ANALYZER: auCDtect: CD records authenticity detector, version 0.8.2
    Copyright (c) 2004 Oleg Berngardt. All rights reserved.
    Copyright (c) 2004 Alexander Djourik. All rights reserved.
    FILE: АукцЫон - На Солнце (GEO 099 CD).flac
    Size: 405526016 Hash: 6CA4488B760BDC1D703EECEC3D397C40 Accuracy: -m0
    Conclusion: CDDA 100%
    Signature: 58266B2102E51004CD9AF1D91FBCF4F3659E7F48

    Время раздачи: 24/7 (круглосуточно) (до появления первых 3-5 скачавших) -
    Поглощение/вытеснение
    Только с согласия релизера
    chaosman1986

    АукцЫон - На солнце (2016) MP3, Скачать торрент, Скачать торрент без регистрации, торренты без регистрации, скачать торрент бесплатно, торрент без рей

    Популярные торренты

    Аукцыон на солнце скачать торрентGTA / Grand Theft Auto: Криминальная Россия (2010) PC |.
    Аукцыон на солнце скачать торрентGTA San Andreas (2005) PC | 2CD
    Аукцыон на солнце скачать торрент3D Инструктор [2.2.7] + 100 машин (2011) PC
    Аукцыон на солнце скачать торрентCall of Duty 2 (2005) PC | RePack
    Аукцыон на солнце скачать торрентGTA 4 / Grand Theft Auto IV in style GTA V (2014) PC |.
    Аукцыон на солнце скачать торрентAutoCAD 2012 (2012) PC
    Аукцыон на солнце скачать торрентGTA: San Andreas - Криминальная Россия (2010) PC
    Аукцыон на солнце скачать торрентFallout 3: Золотое издание (2010) PC | все 5 DLC на рус.
    Аукцыон на солнце скачать торрентСборник - Всё сразу 200 хитов Выпуск 3 (2015) MP3
    Аукцыон на солнце скачать торрентShrek 2: The Game (2004) PC | Лицензия

    АукцЫон - На солнце (2016) MP3

    Аукцыон на солнце скачать торрент
    АукцЫон - На солнце (2016) MP3
    Год: 2016
    Жанр: Rock
    Страна: Россия
    Продолжительность: 01:03:46
    Формат/Кодек: MP3
    Битрейт аудио: 128 kbps

    АукцЫон Российский экспериментальный рок-коллектив.

    Трек-лист:
    01. Сынок
    02. И день и ночь
    03. Пропал
    04. Луна упала
    05. Чайки
    06. Плыть
    07. На солнце
    08. Мир тает

    АукцЫон - На солнце (2016) MP3, Скачать Торрент

    АукцЫон - На солнце (2016) MP3 | Скачать Торрент

    У нас вы можете не только скачать фильмы через торрент или скачать сериалы через торрент, но также скачать торренты музыки, торренты игр, торренты программ и даже торрент файлы книг. Быстрый поиск среди огромного числа торрент файлов позволит в считанные секунда найти интересующие вас торрент файлы фильмов, торрент файлы музыки, торренты программ, книг и игр для компьютеров. Огромная коллекция новых фильмов и последних серий популярных сериалов. На сайте находятся фильмы 1080p, фильмы 720p, 3d фильмы. Все фильмы с качественными и профессиональными переводами.

    По всем вопросам и предложениям пишите на support@cloudyapi.com. ZzTorrent.com - 2017

    Файлы для обмена собираются в автоматическом режиме, по всей сети интернет. Администрация не несёт ответственности за их содержание. На сервере хранятся только торрент-файлы.

    Это значит, что мы не храним никаких нелегальных материалов, а так же материалов охраняемых авторским правом.

    АукцЫон - На солнце, MP3 Музыка 2016 скачать торрентом

    • Дата выхода: 7 сентября 2017" alt="Оно дата выхода 7 сентября 2017" />
    • Дата выхода: 7 сентября 2017" alt="Твое имя дата выхода 7 сентября 2017" />
    • Дата выхода: 7 сентября 2017" alt="Удача Логана дата выхода 7 сентября 2017" />
    • Дата выхода: 7 сентября 2017" alt="Секс-Трип дата выхода 7 сентября 2017" />
    • Дата выхода: 7 сентября 2017" alt="Брюс Ли: Рождение Дракона дата выхода 7 сентября 2017" />
    • Дата выхода: 7 сентября 2017" alt="В гостях у Элис дата выхода 7 сентября 2017" />
    • Дата выхода: 7 сентября 2017" alt="Квадрат дата выхода 7 сентября 2017" />
    • Дата выхода: 7 сентября 2017" alt="Дозор джунглей дата выхода 7 сентября 2017" />
    • Дата выхода: 14 сентября 2017" alt="мама! дата выхода 14 сентября 2017" />
    • Дата выхода: 14 сентября 2017" alt="Напарник дата выхода 14 сентября 2017" />
    • Дата выхода: 14 сентября 2017" alt="Клаустрофобия дата выхода 14 сентября 2017" />
    • Дата выхода: 14 сентября 2017" alt="Мадам дата выхода 14 сентября 2017" />
    • Дата выхода: 14 сентября 2017" alt="Статус Брэда дата выхода 14 сентября 2017" />
    • Дата выхода: 14 сентября 2017" alt="Министр дата выхода 14 сентября 2017" />
    • Дата выхода: 16 сентября 2017" alt="МУЛЬТ в кино. Выпуск №58. Большая перемена дата выхода 16 сентября 2017" />

    АукцЫон - На солнце | MP3

    АукцЫон - На солнце | MP3 [Музыка 2016] скачать торрентом/torrent бесплатно

    Аукцыон на солнце скачать торрент

    16-05-2016 в 15:08:31

    Не воспроизводятся видео/аудио?

    Раздают: 28 Качают: 0 Скачали: 30 Размер: 59.81 MB

    Продолжительность: 01:03:46
    Формат/Кодек: MP3
    Битрейт аудио:128 kbps

    Российский экспериментальный рок-коллектив.

    01. Сынок
    02. И день и ночь
    03. Пропал
    04. Луна упала
    05. Чайки
    06. Плыть
    07. На солнце
    08. Мир тает

    Как скачать?

    1. Качаем UTorrent версии 2.0 и выше отсюда
    2. После установки, жмем на ссылку Скачать торрент.
    3. Открываем его через utorrent.
    4. Ждем пока подключатся участники.
    5. Качаем.