Софт-Архив

фильм всадники 1939 скачать торрент

Рейтинг: 4.7/5.0 (56 проголосовавших)

Категория: Торрент-файлы

Описание

Скачать фильм Всадники (1939) DVDRip через торрент

Скачать фильм Всадники (Игорь Савченко) / [1939, драма, военный, история, DVDRip] - торрент

Всадники
Фильм всадники 1939 скачать торрент
Формат: DVDRip, AVI, DivX, MP3

Режиссер: Игорь Савченко

Описание: 1918 год. На Украине идет народная война против германских оккупантов и украинских националистов. Немецкая артиллерия уничтожает село крестьянина Якима Недоли. Герой клянется мстить и становится вожаком партизанского отряда. Соединившись с донецким отрядом легендарного командира Чубенко, всадники-партизаны побеждают регулярные войска оккупантов и с подошедшей Красной Армией ведут бои за Советскую Украину.

Рейтинг на КиноПоиске:

Видео: 720x544 (1.32:1), 25 fps, DivX Codec 4.x

1799 kbps avg, 0.18 bit/pixel
Аудио: 48 kHz, MPEG Layer 3, 1 ch,

Доп. информация: Рип: pmv


Фильм всадники 1939 скачать торрент
Фильм всадники 1939 скачать торрент
Фильм всадники 1939 скачать торрент
Фильм всадники 1939 скачать торрент
Фильм всадники 1939 скачать торрент
Фильм всадники 1939 скачать торрент
Фильм всадники 1939 скачать торрент

Фильм всадники 1939 скачать торрент

Информация о торренте:

Размер содержимого: 1.2 GB
Скачан: 1134 раза
Статус: Проверен Зарегистрирован на трекере: 2011-05-08 16:27

фильм всадники 1939 скачать торрент:

  • скачать
  • скачать
  • Другие статьи

    Фильм всадники 1939 скачать торрент

    Фильм всадники 1939 скачать торрент

    О фильме: 1918 год. На Украине идет народная война против германских оккупантов и украинских националистов. Немецкая артиллерия уничтожает село крестьянина Якима Недоли. Герой клянется мстить и становится вожаком партизанского отряда. Соединившись с донецким отрядом легендарного командира Чубенко, всадники-партизаны побеждают регулярные войска оккупантов и с подошедшей Красной Армией ведут бои за Советскую Украину.


    Фильм всадники 1939 скачать торрент
    Фильм всадники 1939 скачать торрент
    Фильм всадники 1939 скачать торрент
    Фильм всадники 1939 скачать торрент

    Нажмите чтобы закрыть спойлер: Скриншоты

    Фильм всадники 1939 скачать торрентФильм всадники 1939 скачать торрентФильм всадники 1939 скачать торрентФильм всадники 1939 скачать торрент

    Оповестить о раздаче

    Включить оповещение на почту ( о новом торрент-файле ), когда появится раздача с похожим названием: Всадники, DVDRip

    Внимание. Если вы не авторизованы, то для вас будет создана временная учетная запись (доступ к аккаунту будет прикреплен в письме).

    Скачать Всадники (1939) VHSRip торрент на

    - Всадники (1939) VHSRip -

    Фильм всадники 1939 скачать торрент

    Производство: СССР, Киевская киностудия
    Жанр: Военный, Драма
    Режиссер: Игорь Савченко
    Актеры: Лев Свердлин, Степан Шкурат, Петр Масоха, Михаил Трояновский, Николай Братерский, Елена Кузьмина, Моисей Розин, Виктор Аркасов, Леонид (Алексей) Кмит, Г. Долгов, Владимир Освецимский, Генрих Грайф, Николай Горлов, Ю. Бантыш, Ганс Клеринг, Николай Орлов, Дмитрий Капка
    Описание:
    По мотивам одноименного романа Юрия Яновского.
    1918 год. На Украине идет народная война против германских оккупантов и украинских националистов. Немецкая артиллерия уничтожает село крестьянина Якима Недоли. Герой клянется мстить и становится вожаком партизанского отряда. Соединившись с донецким отрядом легендарного командира Чубенко, всадники-партизаны побеждают регулярные войска оккупантов и с подошедшей Красной Армией ведут бои за Советскую Украину.

    Продолжительность: 01:29:00
    Качество видео: VHSRip
    Видео: Xvid, 688x528,

    2003 Кбит/сек
    Аудио: AC3, 2 ch, 192 Кбит/сек

    Mediainfo:

    Общее
    Полное имя : E:\Всадники (1939) VHSRip.avi
    Формат : AVI
    Формат/Информация : Audio Video Interleave
    Размер файла : 1,37 Гбайт
    Продолжительность : 1 ч. 28 м.
    Общий поток : 2204 Кбит/сек
    Программа кодирования : VirtualDubMod 1.5.10.3 | [url=http://www.virtualdub-fr.org]www.virtualdub-fr.org[/url] || (build 2550/release)
    Библиотека кодирования : VirtualDubMod build 2550/release
    Видео
    Идентификатор : 0
    Формат : MPEG-4 Visual
    Профиль формата : Advanced [email protected]
    Параметр BVOP формата : 2
    Параметр QPel формата : Нет
    Параметр GMC формата : Без точки перехода
    Параметр матрицы формата : Default (H.263)
    Идентификатор кодека : XVID
    Идентификатор кодека/Подсказка : XviD
    Продолжительность : 1 ч. 28 м.
    Битрейт : 2003 Кбит/сек
    Ширина : 688 пикселей
    Высота : 528 пикселей
    Соотношение сторон : 4:3
    Частота кадров : 25,000 кадров/сек
    Цветовое пространство : YUV
    Субдискретизация насыщенности : 4:2:0
    Битовая глубина : 8 бит
    Тип развёртки : Прогрессивная
    Метод сжатия : С потерями
    Бит/(Пиксели*Кадры) : 0.221
    Размер потока : 1,24 Гбайт (91%)
    Библиотека кодирования : XviD 62
    Аудио
    Идентификатор : 1
    Формат : AC-3
    Формат/Информация : Audio Coding 3
    Расширение режима : CM (complete main)
    Параметр Endianness формата : Big
    Идентификатор кодека : 2000
    Продолжительность : 1 ч. 28 м.
    Вид битрейта : Постоянный
    Битрейт : 192 Кбит/сек
    Каналы : 2 канала
    Расположение каналов : Front: L R
    Частота : 48,0 КГц
    Частота кадров : 31,250 кадров/сек (1536 spf)
    Метод сжатия : С потерями
    Размер потока : 122 Мбайт (9%)
    Выравнивание : Разделение по промежуткам
    Продолжительность промежутка : 40 мс. (1,00 видеокадр)
    Время предзагрузки промежутка : 500 мс.

    Дополнительные скриншоты:

    Фильм всадники 1939 скачать торрентФильм всадники 1939 скачать торрентФильм всадники 1939 скачать торрентФильм всадники 1939 скачать торрентФильм всадники 1939 скачать торрент
    Фильм всадники 1939 скачать торрентФильм всадники 1939 скачать торрентФильм всадники 1939 скачать торрентФильм всадники 1939 скачать торрентФильм всадники 1939 скачать торрент

    Время раздачи: С 18:00 до 23:00

    Скачать фильмы Всадники - ТОРРЕНТИНО - торрент трекер - бесплатно DVDRip

    Всадники / 1939 / DVDRip

    Оригинальное название: Всадники
    Год выпуска: 1939
    Жанр: Исторический, военный
    Выпущено: СССР
    Режиссер: Игорь Савченко
    В ролях: Лев Свердлин, Петр Масоха, Владимир Освецимский, Степан Шкурат, Михаил Трояновский, Николай Братерский, Елена Кузьмина, Леонид Кмит, Николай Горлов
    Качество: DVDRip
    Видео: DivX, 1303 Кбит/с, 640x480
    Аудио: MP3, 2 ch, 128 Кбит/с
    Размер: 871.65 МБ
    Продолжительность: 01:28:44
    Язык: Русский
    О фильме: 1918 год. На Украине идет народная война против германских оккупантов и украинских националистов. Немецкая артиллерия уничтожает село крестьянина Якима Недоли. Герой клянется мстить и становится вожаком партизанского отряда. Соединившись с донецким отрядом легендарного командира Чубенко, всадники-партизаны побеждают регулярные войска оккупантов и с подошедшей Красной Армией ведут бои за Советскую Украину.

    Похожие торренты

    Фильм всадники 1939 скачать торрент

    Фильм всадники 1939 скачать торрент

    Фильм всадники 1939 скачать торрент

    Фильм всадники 1939 скачать торрент

    Фильм всадники 1939 скачать торрент

    Комментарии

    К сожалению пока никто не оставил комментарий ;(

    © 2009–2017, Торрентино
    По всем вопросам обращаться на admin@torrentino.me

    Правообладателям просьба писать вежливо и своевременно: abuse@torrentino.me и мы отнесемся к вашей просьбе с пониманием.

    Всадники (1939) VHSRip

    Раздача является мультитрекерной — учтите, количество раздающих не будет совпадать с количеством участников на сайте (скачивание на клиентской стороне зависит от настроек µTorrent клиент программы, настройки -> Включить DHT, Обмен пирами и Поиск лок-х пиров).
    Если висит надпись, пиры по нулям - не бойтесь, возможность скачать повторно раздачу - есть. Попробуйте, в случае отказа - прокоментируйте или нажмите на "Позвать скачавших".

    Скачать .torrent файл (основная ссылка для скачивания файла)
    Смотреть / Слушать онлайн просмотр (ссылка для просмотра файла через плагин 'Torrent Stream')
    Magnet-ссылка (альтернативная ссылка для скачивания файла)

    Фильм всадники 1939 скачать торрент

    Всадники (1939) VHSRip
    Производство: СССР, Киевская киностудия
    Жанр: Военный, Драма

    Описание:
    По мотивам одноименного романа Юрия Яновского.
    1918 год. На Украине идет народная война против германских оккупантов и украинских националистов. Немецкая артиллерия уничтожает село крестьянина Якима Недоли. Герой клянется мстить и становится вожаком партизанского отряда. Соединившись с донецким отрядом легендарного командира Чубенко, всадники-партизаны побеждают регулярные войска оккупантов и с подошедшей Красной Армией ведут бои за Советскую Украину.

    2003 Кбит/сек
    Аудио: AC3, 2 ch, 192 Кбит/сек


    Код:
    Общее
    Полное имя : E:\Всадники (1939) VHSRip.avi
    Формат : AVI
    Формат/Информация : Audio Video Interleave
    Размер файла : 1,37 Гбайт
    Продолжительность : 1 ч. 28 м.
    Общий поток : 2204 Кбит/сек
    Программа кодирования : VirtualDubMod 1.5.10.3 | www.virtualdub-fr.org || (build 2550/release)
    Библиотека кодирования : VirtualDubMod build 2550/release

    Видео
    Идентификатор : 0
    Формат : MPEG-4 Visual
    Профиль формата : Advanced Simple@L5
    Параметр BVOP формата : 2
    Параметр QPel формата : Нет
    Параметр GMC формата : Без точки перехода
    Параметр матрицы формата : Default (H.263)
    Идентификатор кодека : XVID
    Идентификатор кодека/Подсказка : XviD
    Продолжительность : 1 ч. 28 м.
    Битрейт : 2003 Кбит/сек
    Ширина : 688 пикселей
    Высота : 528 пикселей
    Соотношение сторон : 4:3
    Частота кадров : 25,000 кадров/сек
    Цветовое пространство : YUV
    Субдискретизация насыщенности : 4:2:0
    Битовая глубина : 8 бит
    Тип развёртки : Прогрессивная
    Метод сжатия : С потерями
    Бит/(Пиксели*Кадры) : 0.221
    Размер потока : 1,24 Гбайт (91%)
    Библиотека кодирования : XviD 62

    Аудио
    Идентификатор : 1
    Формат : AC-3
    Формат/Информация : Audio Coding 3
    Расширение режима : CM (complete main)
    Параметр Endianness формата : Big
    Идентификатор кодека : 2000
    Продолжительность : 1 ч. 28 м.
    Вид битрейта : Постоянный
    Битрейт : 192 Кбит/сек
    Каналы : 2 канала
    Расположение каналов : Front: L R
    Частота : 48,0 КГц
    Частота кадров : 31,250 кадров/сек (1536 spf)
    Метод сжатия : С потерями
    Размер потока : 122 Мбайт (9%)
    Выравнивание : Разделение по промежуткам
    Продолжительность промежутка : 40 мс. (1,00 видеокадр)
    Время предзагрузки промежутка : 500 мс.

    Нажмите чтобы закрыть спойлер: Mediainfo: