Софт-Архив

химера Zudwa альбом скачать торрент

Рейтинг: 4.1/5.0 (307 проголосовавших)

Категория: Торрент-файлы

Описание

Post-punk, noise rock, post-hardcore) Химера (ex- Депутат Балтики): коллекция, 14 бутлегов, 1991–1997, MP3, 128-320 kbps

Химера :
коллекция

> Albums | > Live in St?rtebeker, 1996.04.30 (Hamburg, Germany)
Жанр. post-punk, noise rock, post-hardcore | Страна. РФ (СПб) | Годы издания. 1991–1997
Аудиокодек. MP3 | Тип рипа. tracks | Битрейт аудио. 320 kbps*
Продолжительность. 18:01:03 | Наличие сканов в содержимом раздачи. нет - В данной раздаче объединены записи групп Депутат Балтики и Химера (ex- Д. Б.), не издававшиеся официально,
включая, как концертные бутлеги, так и "самопальную" сборку разнообразного материала Неизданное [1992–1997],
а так же записи эфиров на радио «Модерн» (с Г. Бачинским), содержащие некоторые очень редкие материалы. - Содержание.

[1991.01.26] Полупетроградская Акустика * CBR 128

01. Депутат Балтики. Осень (3:24)
02. Депутат Балтики. Второе Пришествие (3:31)
03. Депутат Балтики. Звезда (3:01)
04. Депутат Балтики. Пётр (2:33)
05. Депутат Балтики. На Все Четыре Стороны (4:16)
06. Депутат Балтики. Футурия (3:23)
07. Депутат Балтики. Последний Житель Земли (3:25)
08. Депутат Балтики. Марсианка (1:55)
09. Депутат Балтики. Рутина (3:07)
10. Депутат Балтики. Зайцы (3:28)
11. Депутат Балтики. Ай-Лю-Ли (3:08)
12. Депутат Балтики. Республика Облаков (4:36)
13. Депутат Балтики. Поэма Влюблённых Цистерн (9:29)
14. Депутат Балтики. Меньше Да Больше (4:13)
15. Депутат Балтики. Двадцать Лет (4:02)
16. Депутат Балтики. Снег (1:53)

[1991.xx.xx] Redt Старков & Co * CBR 256

01. Эдуард Старков. Всё это было (4:55)
02. Эдуард Старков. Ба-Бах-Гром (1:53)
03. Эдуард Старков. Пурпурный Звон (3:49)
04. Эдуард Старков. Кровь (3:40)
05. Эдуард Старков. Я шёл по бескрайней пустыне (3:55)
06. Эдуард Старков. Дед Егор (2:57)
07. Эдуард Старков. Крыша (2:26)
08. Эдуард Старков. Её Имя – Свобода (3:12)
09. Эдуард Старков. Великий Грешник (2:13)
10. Эдуард Старков. Это Бой (2:33)
11. Эдуард Старков. Смерть–Ртуть (4:22)
12. Эдуард Старков. Марсианка (2:49)
13. Эдуард Старков. Война-Войной (3:10)
14. Эдуард Старков. Туга тетива на луках (1:47)
15. Эдуард Старков. Импровизация (1:32)

[1993.11.xx] «Вояж» (Москва)

01. Химера. Тотальный Джаз (6:19)
02. Химера. All that she’s wont / Vira-Maina (3:17)
03. Химера. Ura-Jazz (3:20)
04. Химера. Ай-лю-ли (4:47)
05. Химера. Лошадь (2:25)
06. Химера. Льды (4:59)
07. Химера. Челленджер (2:09)
08. Химера. Пётр (2:27)
09. Химера. Бред (1:05)
10. Химера. Рыбий глаз / Война (5:35)
11. Химера. Луноход 1 (3:22)
12. Химера. Suomi Dead Roller Poika (5:46)
13. Химера. Штурман (2:52)
14. Химера. Хоттабыч (2:54)
15. Химера. I Was Made For Loving You (2:45)
16. Химера. Клоп (5:51)

[1994.xx.xx] «TaMtAm» (СПб)

01. Химера. Акула (5:16)
02. Химера. Галлюцинат (5:19)
03. Химера. Импровизация (14:00)
04. Химера. Эхо (0:17)
05. Химера. Калевала (2:35)
06. Химера. Клоп (5:25)
07. Химера. Импровизация (12:42)

[1995.09.15] «TaMtAm» (СПб)

01. Химера. Крылья (3:55)
02. Химера. Мальчиш-Плохиш (4:11)
03. Химера. Клоп (4:49)
04. Химера. Электричка / Парус (12:35)
05. Химера. Марсианка (3:42)
06. Химера. Акула (4:59)
07. Химера. Бред (1:19)
08. Химера. Челленджер (2:26)
09. Химера. Калевала (2:32)
10. Химера. Зайцы (1:10)

[1995.11.17] «TaMtAm» (СПб)

01. Химера. Поэма Влюблённых Цистерн (11:20)
02. Химера. Сюзанна (2:03)
03. Химера. Can't Buy Me Love (1:41)
04. Химера. Нуихули (3:59)
05. Химера. Марсианка (2:30)
06. Химера. Льды (3:33)
07. Химера. Ай-Да (3:28)
08. Химера. Галлюцинат (4:05)
09. Химера. Зайцы (4:03)
10. Химера. Клоп (3:52)
11. Химера. Фантазёры (1:08)
12. Химера. Мальчиш-Плохиш (3:02)
13. Химера. Электричка (4:04)
14. Химера. Штурман (4:02)

[1995.xx.xx] нуихули * CBR 128

01. Химера. Акула (4:17)
02. Химера. Галлюцинат (3:16)
03. Химера. Ай-Да! (3:28)
04. Химера. Разорались Вороны (5:18)
05. Химера. Мальчиш-Плохиш (3:22)
06. Химера. Рутина (4:14)
07. Химера. На Все Четыре Стороны (4:40)
08. Химера. Нуихули (2:53)
09. Химера. Поэма Влюблённых Цистерн (10:36)
10. Химера. Скандинавец (3:34)
11. Химера. Крылья (7:02)
12. Химера. Зайцы (4:32)
13. Химера. Изгой (4:11)
14. Химера. Электричка (4:00)
15. Химера. Штурман (Бм-24) (4:59)
16. Химера. Льды (5:02)
17. Химера. Марсианка (2:48)
18. Химера. Кровь (4:35)
19. Химера. Моя Гитара Повесилась (Всем Смертям Назло) (3:50)
20. Химера. Ах! (2:31)

[1996.04.26] «Lola Club» (Hamburg)

01. Химера. Крылья (5:19)
02. Химера. Контроль (6:10)
03. Химера. Фантазёры (1:31)
04. Химера. Карма мира (1:18)
05. Химера. ZuDwa (4:41)
06. Химера. Галлюцинат (4:15)
07. Химера. Сюзанна (3:52)
08. Химера. В рай (2:58)
09. Химера. Штурман (1:03)
10. Химера. Челленджер (4:01)
11. Химера. Графин (4:49)
12. Химера. Фантазёры (1:52)
13. Химера. Капитан Немо (7:05)
14. Химера. Скандинавец (5:47)
15. Химера. Бред (1:57)
16. Химера. Suomi Dead Roller Poika (4:13)

[1997.01.17] «Молоко» (СПб) * VBR

01. Химера. Гурьба (2:33)
02. Химера. Фантазёры (1:20)
03. Химера. Акула (4:52)
04. Химера. Галлюцинат (3:14)
05. Химера. Крылья (3:17)
06. Химера. Контроль (5:06)
07. Химера. Фантазёры (0:20)
08. Химера. Карма Мира (0:38)
09. Химера. Бред (0:46)
10. Химера. Вода-Огонь (5:53)
11. Химера. В Рай (1:59)
12. Химера. Импровизация (1:45)
13. Химера. ZUDWA (5:59)
14. Химера. Капитан Немо (3:12)

[1997.02.16] квартирник * CBR 256

01. Эдуард Старков. Ай-лю-ли (4:41)
02. Эдуард Старков. Марсианка (2:18)
03. Эдуард Старков. Путешественники (6:41)
04. Эдуард Старков. Дождик (2:34)
05. Эдуард Старков. Калевала (2:24)
06. Эдуард Старков. По приютам (1:57)
07. Эдуард Старков. Сиду Вишесу (4:32)
08. Эдуард Старков. Мальчиш-Плохиш (2:38)
09. Эдуард Старков. Пётр (2:39)
10. Эдуард Старков. Графин (5:05)
11. Эдуард Старков. Импровизация (1:20)
12. Эдуард Старков. Шуба Дуба Блюз (Звуки Му) (2:59)
13. Эдуард Старков. Фантазёры (1:50)
14. Эдуард Старков. Электричка (5:16)
15. Эдуард Старков. Льды (3:26)
16. Эдуард Старков. Вороны (3:53)
17. Эдуард Старков. Нуихули 1 (1:01)
18. Эдуард Старков. Нуихули 2 (0:27)
19. Эдуард Старков. Штурман (2:08)
20. Эдуард Старков. ZUDWA (4:51)
21. Эдуард Старков. Сюзанна (2:12)
22. Эдуард Старков. Капитан Немо (4:32)
23. Эдуард Старков. Ба-Бах-Гром (2:40)
24. Эдуард Старков. В Защиту Животных (Гринпис Посвящается) (2:33)
25. Эдуард Старков. Импровизация (5:22)

Неизданное [1992–1997]

01. Химера. Клоп (1:58)
02. Химера. Химера (6:22)
03. Химера. Виселица (5:28)
04. Химера. Зима (4:03)
05. Химера. Лечебница (2:58)
06. Химера. Ворона, Собака, Лягушка, Кошка (2:15)
07. Химера. Бред / Обеденный Концерт (3:57)
08. Химера. Рыбий Глаз / Война (5:43)
09. Химера. Оргазмотрония (27:25)
10. Химера. Клоп (5:22)
11. Химера. Рыба (Live in Lucerne, Switzerland, 1994.07.03) (7:40)
12. Химера. Республика облаков (4:24)
13. Химера. Импровизация (17:53)
14. Egazeba. Импровизация (10:46)
15. Egazeba. Импровизация (47:24)
16. Химера. Плясовая (запись альбома ZUDWA) (4:25)
17. Химера. Тотальный джаз (remix) (5:58)
18. Химера. Set without Redt (Клуб Гора, февраль '97) (11:20)

Эфиры радио «Модерн» [1997] 1997.03.11

01. Геннадий Бачинский. Микс 1 (8:20)
02. Геннадий Бачинский. Приветствие (0:26)
03. Геннадий Бачинский. Девочка со спичками (15:49)
04. Геннадий Бачинский. Albinoni's Adagio In G Minor (9:27)
05. Геннадий Бачинский. The Cure – One Hundred Years 1 (11:07)
06. Геннадий Бачинский. The Cure – One Hundred Years 2 (2:55)
07. Геннадий Бачинский. Вороны (3:29)
08. Геннадий Бачинский. Микс 2 (1:53)
09. Геннадий Бачинский. От винта (5:13)
10. Геннадий Бачинский. Вода-Огонь (8:05)
11. Геннадий Бачинский. Семилукский Выкидыш (8:10)
12. Геннадий Бачинский. Bauhaus – All We Ever Wanted Was Everything (5:00)
13. Геннадий Бачинский. The Element of Crime – Waiting For the Morning Train (3:24)
14. Геннадий Бачинский. Микс 3 (2:46)
15. Геннадий Бачинский. The Color Red – Unknown (3:22)
16. Геннадий Бачинский. Допубертатный мир (35:24)
17. Геннадий Бачинский. Микс 4 (3:15)
18. Геннадий Бачинский. Моя гитара повесилась (3:40)
19. Геннадий Бачинский. Fugazi – Turnover/Repeater/Brendan #1 (12:29)
20. Геннадий Бачинский. Suomi Roller Poika (8:44)
21. Геннадий Бачинский. Фантазёры (3:55)
22. Геннадий Бачинский. Свистки (2:12)
23. Геннадий Бачинский. Скандинавец (3:24)
24. Геннадий Бачинский. Зайцы/Калевала (7:40)
25. Геннадий Бачинский. The Doors – The End (9:01)

1997.07.08

01. Геннадий Бачинский. Микс 1 (9:43)
02. Геннадий Бачинский. Приветствие (1:56)
03. Геннадий Бачинский. Вороны (3:34)
04. Геннадий Бачинский. Микс 2 (4:47)
05. Геннадий Бачинский. Анонс (1:11)
06. Геннадий Бачинский. Разговор Эдика и Гены (1991 год) в миксе – 1 (23:58)
07. Геннадий Бачинский. Разговор Эдика и Гены (1991 год) в миксе – 2 (14:41)
08. Геннадий Бачинский. Республика Облаков (4:11)
09. Геннадий Бачинский. Разговор с Севой Гаккелем – 1 (6:04)
10. Геннадий Бачинский. Счастливого пути (3:13)
11. Геннадий Бачинский. Разговор с Севой Гаккелем – 2 (7:51)
12. Геннадий Бачинский. Графин (6:32)

Полупетроградская Акустика

01. Депутат Балтики. Революции не будет (7:05)
02. Депутат Балтики. Поэма Влюблённых Цистерн (9:37)
03. Депутат Балтики. Меньше Да Больше (4:16)
04. Депутат Балтики. 20 лет (4:14)
05. Депутат Балтики. Снег (3:45)
06. Депутат Балтики. Сны кочегара (6:06)
07. Депутат Балтики. Графин (2:41)
08. Депутат Балтики. Вороны (5:46)
09. Депутат Балтики. Ферапонт (5:20)
10. Депутат Балтики. Осень (3:35)
11. Депутат Балтики. Второе Пришествие (3:48)
12. Депутат Балтики. Звезда (3:05)
13. Депутат Балтики. Пётр (2:41)
14. Депутат Балтики. Кораблики (1:29)

Как скачивать? · Что такое торрент? · Рейтинг и ограничения

химера zudwa альбом скачать торрент:

  • скачать
  • скачать
  • Другие статьи

    Химера zudwa альбом скачать торрент

    Дискография Депутат Балтики

    (Записано в студии на Охте в марте 1993 года)

    (1994 Abdylda Records, МС )

    (1996 Czerwony Diabelek ( Poland ), МС )

    (1999 Caravan records 065, МС) альбом вышел с другим количеством и порядком песен.

    Химера zudwa альбом скачать торрентХимера zudwa альбом скачать торрент

    Издание 1994 года: Издание 1999 года:

    01 Ворона Собака Лягушка Кошка 01 Ворона Собака Лягушка Кошка
    02 Обеденный Концерт 02 Обеденный Концерт
    03 Рыбий Глаз 03 Рыбий Глаз
    04 Июнь 41-го 04 Июнь 41-го
    05 Война 05 Война
    06 Считалочка 06 Считалочка
    07 Хоттабыч 07 Фантазеры
    08 Зима 08 Хоттабыч
    09 Зимний Синдром 09 Зимний Синдром
    10 Петр
    11 Фантазеры side b :

    side b. 10 Suomi Dead Roller Poika
    11 Петр
    12 Suomi Dead Roller Poika 12 Химера
    13 Химера 13 Бред
    14 Бред 14 Клоп
    15 Клоп C емён 15 Зима
    16 Увертюра 16 Intro
    17 6 часов 30 минут
    18 Виселица (запись декабря 92г.) / 8 .0 Mb ]

    "Live In Moscow. TaMtAm & Other Places'93".

    (1994 Egazeba Records, MC)

    (storona A: Концерт в Москве. Egazeba records [p] ноябрь 1993)

    (storona B:Записи группы Химера. Записи группы Химера в какой то своей части осуществлены в клубе “TaMtAm” St. Petersburg. Egazeba records [p] декабрь 1992)

    (Egazeba records [p]93 [c]94; Idealdealdezign [p]94 c/o “TaMtAm” club St. Petersburg ).

    1. Тотальный Джаз.

    2.All that she’s wont.

    Скачать mp3 альбом Zudwa 2005 года исполнитель Химера бесплатно через торрент клиент Zona и слушать онлайн

    Тексты песен
    • hey mr big shot who you guess you are put your assumption straight to
      Serebro - What's your problem?
    • day is dawning and i must go you're asleep but still i'm sure you'll
      Abba - Another Town, Another Train
    • i think the kids are in trouble do not know what all the troubles are
      The National - Conversation 16
    • i got troubled thoughts and the self esteem to match what a catch
      Fall Out Boy - What a Catch, Donnie
    • una lacrima va giu' dagli occhi nella gola se sei tu che mi lasci
      Laura Pausini - Due innamorati come noi
    • no ceiling on hard living peace keepers keep on breathing can't deny
      Elton John - Sweat It Out
    • the dark carnival is in town you better be ready just follow the
      Creature Feature - The Greatest Show Unearthed
    • are you lost in your lies do you tell yourself i don't realize your
      Linkin Park - No More Sorrow
    • baby come on tell me what's wrong i see the tears in your eyes so
      Arabesque - I Stand by You
    • so if you re lonely you know i m here waiting for you i m just a
      Franz Ferdinand - Take me out
    • poi ho visto gli occhi tuoi rotolando verso casa chiamare i miei che
      Zucchero - Occhi
    • no one ever knows how evolution goes the earth is still a plate with
      Helloween - Church Breaks Down
    • ?? ?? ?? ? ???? ??? ? ?? ??? ?? ? ? ?? ???? ??? ???? ??? ???? ???
      SHINee - Hello
    • let me see you put your hearts up yeah let me see you put your hearts
      Ariana Grande - Put Your Hearts Up
    • when you wake up turn the radio on and you'll hear this simple song
      James Blunt - If Time Is All I Have

    Химера zudwa альбом скачать торрент

    Химера — Zudwa

    Химера — Парус.

    Химера — Рукоятка.

    Химера — Тотальный Джаз.

    Химера — Контроль.

    Химера — Карма Мира.

    Химера — ZUDWA.

    Химера — Капитан Немо.

    Химера — Бред.

    Химера — Гурьба.

    Химера — В Рай.

    Химера — Фикусы.

    Химера — Вода-огонь.

    Химера — Джирмайда.

    Alternative) Химера - 4 альбома 1994-1996, FLAC (tracks

    Химера - Электричка (Live In TaMtAm) (1994)
    Страна. Россия
    Жанр. Альтернатива
    Год выпуска. 1994
    Формат. FLAC (tracks + .cue)
    Битрейт аудио. lossless
    Продолжительность. 43 min
    Трэклист.
    1. Электричка
    2. Моя Гитара Повесилась
    3. Марсианка
    4. Ферапонт
    5. Зайцы
    6. Калевала
    7. Петр
    8. Графин
    9. Ай-Лю-Ли
    10. Intro Unplug
    11. Штурман
    12. Крыша
    13. Телохранитель Луны

    Exact Audio Copy V0.99 prebeta 4 from 23. January 2008
    EAC extraction logfile from 3. November 2008, 22:27
    Химера / Live in Tam Tam
    Used drive. ASUS DRW-1814BL Adapter: 5 ID: 0
    Read mode. Secure
    Utilize accurate stream. Yes
    Defeat audio cache. Yes
    Make use of C2 pointers. No
    Read offset correction. 6
    Overread into Lead-In and Lead-Out. No
    Fill up missing offset samples with silence. Yes
    Delete leading and trailing silent blocks. No
    Null samples used in CRC calculations. Yes
    Used interface. Installed external ASPI interface
    Gap handling. Appended to previous track
    Used output format. User Defined Encoder
    Selected bitrate. 320 kBit/s
    Quality. High
    Add ID3 tag. No
    Command line compressor. C:\Program Files\Exact Audio Copy\Flac\flac.exe
    Additional command line options. -8 -A tukey(0.25) -A gauss(0.1875) -b 4096 -V -T "artist=%a" -T "title=%t" -T "album=%g" -T "date=%y" -T "tracknumber=%n" -T "genre=%m" %s --sector-align
    TOC of the extracted CD
    Track | Start | Length | Start sector | End sector
    ---------------------------------------------------------
    1 | 0:00.00 | 3:51.41 | 0 | 17365
    2 | 3:51.41 | 1:56.60 | 17366 | 26125
    3 | 5:48.26 | 2:11.32 | 26126 | 35982
    4 | 7:59.58 | 4:33.54 | 35983 | 56511
    5 | 12:33.37 | 4:17.70 | 56512 | 75856
    6 | 16:51.32 | 2:23.39 | 75857 | 86620
    7 | 19:14.71 | 2:11.33 | 86621 | 96478
    8 | 21:26.29 | 2:39.66 | 96479 | 108469
    9 | 24:06.20 | 3:36.31 | 108470 | 124700
    10 | 27:42.51 | 1:41.58 | 124701 | 132333
    11 | 29:24.34 | 2:31.47 | 132334 | 143705
    12 | 31:56.06 | 2:12.30 | 143706 | 153635
    13 | 34:08.36 | 9:15.45 | 153636 | 195305
    Track 1
    Filename C:\Documents and Settings\Администратор\Рабочий стол\himera\Химера - Live in Tam Tam\01 - Химера - Электричка.wav
    Pre-gap length 0:00:02.00
    Peak level 95.7 %
    Track quality 100.0 %
    Test CRC 016E6FA9
    Copy CRC 016E6FA9
    Copy OK
    Track 2
    Filename C:\Documents and Settings\Администратор\Рабочий стол\himera\Химера - Live in Tam Tam\02 - Химера - Моя Гитара Повесилась.wav
    Peak level 99.1 %
    Track quality 100.0 %
    Test CRC BDA58831
    Copy CRC BDA58831
    Copy OK
    Track 3
    Filename C:\Documents and Settings\Администратор\Рабочий стол\himera\Химера - Live in Tam Tam\03 - Химера - Марсианка.wav
    Peak level 95.7 %
    Track quality 100.0 %
    Test CRC B689FE81
    Copy CRC B689FE81
    Copy OK
    Track 4
    Filename C:\Documents and Settings\Администратор\Рабочий стол\himera\Химера - Live in Tam Tam\04 - Химера - Ферапонт.wav
    Peak level 99.1 %
    Track quality 100.0 %
    Test CRC 50503C20
    Copy CRC 50503C20
    Copy OK
    Track 5
    Filename C:\Documents and Settings\Администратор\Рабочий стол\himera\Химера - Live in Tam Tam\05 - Химера - Зайцы.wav
    Peak level 98.5 %
    Track quality 100.0 %
    Test CRC E2D06E7E
    Copy CRC E2D06E7E
    Copy OK
    Track 6
    Filename C:\Documents and Settings\Администратор\Рабочий стол\himera\Химера - Live in Tam Tam\06 - Химера - Калевала.wav
    Peak level 97.9 %
    Track quality 100.0 %
    Test CRC 76ED8CA1
    Copy CRC 76ED8CA1
    Copy OK
    Track 7
    Filename C:\Documents and Settings\Администратор\Рабочий стол\himera\Химера - Live in Tam Tam\07 - Химера - Петр.wav
    Peak level 94.8 %
    Track quality 100.0 %
    Test CRC D44019CE
    Copy CRC D44019CE
    Copy OK
    Track 8
    Filename C:\Documents and Settings\Администратор\Рабочий стол\himera\Химера - Live in Tam Tam\08 - Химера - Графин.wav
    Peak level 96.5 %
    Track quality 100.0 %
    Test CRC FB00790B
    Copy CRC FB00790B
    Copy OK
    Track 9
    Filename C:\Documents and Settings\Администратор\Рабочий стол\himera\Химера - Live in Tam Tam\09 - Химера - Ай-Лю-Ли.wav
    Peak level 97.9 %
    Track quality 100.0 %
    Test CRC BFC4913D
    Copy CRC BFC4913D
    Copy OK
    Track 10
    Filename C:\Documents and Settings\Администратор\Рабочий стол\himera\Химера - Live in Tam Tam\10 - Химера - Intro Unplug.wav
    Peak level 98.6 %
    Track quality 100.0 %
    Test CRC 57DF8C00
    Copy CRC 57DF8C00
    Copy OK
    Track 11
    Filename C:\Documents and Settings\Администратор\Рабочий стол\himera\Химера - Live in Tam Tam\11 - Химера - Штурман.wav
    Peak level 96.4 %
    Track quality 100.0 %
    Test CRC 15694264
    Copy CRC 15694264
    Copy OK
    Track 12
    Filename C:\Documents and Settings\Администратор\Рабочий стол\himera\Химера - Live in Tam Tam\12 - Химера - Крыша.wav
    Peak level 98.7 %
    Track quality 100.0 %
    Test CRC 515A04C7
    Copy CRC 515A04C7
    Copy OK
    Track 13
    Filename C:\Documents and Settings\Администратор\Рабочий стол\himera\Химера - Live in Tam Tam\13 - Химера - Телохранитель Луны.wav
    Peak level 88.5 %
    Track quality 100.0 %
    Test CRC A7A2AFFE
    Copy CRC A7A2AFFE
    Copy OK
    No errors occurred
    End of status report

    Химера - Nuihuli (1995)
    Страна. Россия
    Жанр. Альтернатива
    Год выпуска. 1995
    Формат. FLAC (tracks + .cue)
    Битрейт аудио. lossless
    Продолжительность. 73 min
    Трэклист.
    1. Акула
    2. Галюцинат
    3. Ай-да
    4. Вороны
    5. Мальчиш-Плахиш
    6. Рутина
    7. Ну-И Хули
    8. Скандинавец
    9. Крылья
    10. Зайцы
    11. Изгой
    12. Штурман
    13. Льды
    14. Марсианка
    15. Кровь
    16. По Приютам

    Exact Audio Copy V0.99 prebeta 4 from 23. January 2008
    EAC extraction logfile from 4. November 2008, 0:03
    Химера / n u i h u l i
    Used drive. ASUS DRW-1814BL Adapter: 5 ID: 0
    Read mode. Secure
    Utilize accurate stream. Yes
    Defeat audio cache. Yes
    Make use of C2 pointers. No
    Read offset correction. 6
    Overread into Lead-In and Lead-Out. No
    Fill up missing offset samples with silence. Yes
    Delete leading and trailing silent blocks. No
    Null samples used in CRC calculations. Yes
    Used interface. Installed external ASPI interface
    Gap handling. Appended to previous track
    Used output format. User Defined Encoder
    Selected bitrate. 320 kBit/s
    Quality. High
    Add ID3 tag. No
    Command line compressor. C:\Program Files\Exact Audio Copy\Flac\flac.exe
    Additional command line options. -8 -A tukey(0.25) -A gauss(0.1875) -b 4096 -V -T "artist=%a" -T "title=%t" -T "album=%g" -T "date=%y" -T "tracknumber=%n" -T "genre=%m" %s --sector-align
    TOC of the extracted CD
    Track | Start | Length | Start sector | End sector
    ---------------------------------------------------------
    1 | 0:00.00 | 4:20.00 | 0 | 19499
    2 | 4:20.00 | 3:06.22 | 19500 | 33471
    3 | 7:26.22 | 3:39.02 | 33472 | 49898
    4 | 11:05.24 | 5:07.59 | 49899 | 72982
    5 | 16:13.08 | 3:17.72 | 72983 | 87829
    6 | 19:31.05 | 2:51.20 | 87830 | 100674
    7 | 22:22.25 | 3:30.04 | 100675 | 116428
    8 | 25:52.29 | 7:00.13 | 116429 | 147941
    9 | 32:52.42 | 4:30.02 | 147942 | 168193
    10 | 37:22.44 | 4:07.29 | 168194 | 186747
    11 | 41:29.73 | 4:56.72 | 186748 | 209019
    12 | 46:26.70 | 4:58.02 | 209020 | 231371
    13 | 51:24.72 | 2:41.09 | 231372 | 243455
    14 | 54:06.06 | 4:30.30 | 243456 | 263735
    15 | 58:36.36 | 2:22.13 | 263736 | 274398
    16 | 60:58.49 | 2:25.14 | 274399 | 285287
    Track 1
    Filename C:\Documents and Settings\Администратор\Рабочий стол\himera\Химера - n u i h u l i\01 - Химера - Акула.wav
    Pre-gap length 0:00:02.00
    Peak level 95.3 %
    Track quality 99.9 %
    Test CRC F9C5A143
    Copy CRC F9C5A143
    Copy OK
    Track 2
    Filename C:\Documents and Settings\Администратор\Рабочий стол\himera\Химера - n u i h u l i\02 - Химера - Галюцинат.wav
    Peak level 95.1 %
    Track quality 99.9 %
    Test CRC B3713236
    Copy CRC B3713236
    Copy OK
    Track 3
    Filename C:\Documents and Settings\Администратор\Рабочий стол\himera\Химера - n u i h u l i\03 - Химера - Ай-да!.wav
    Peak level 93.7 %
    Track quality 100.0 %
    Test CRC 6C000B57
    Copy CRC 6C000B57
    Copy OK
    Track 4
    Filename C:\Documents and Settings\Администратор\Рабочий стол\himera\Химера - n u i h u l i\04 - Химера - Вороны.wav
    Peak level 93.5 %
    Track quality 99.9 %
    Test CRC 18DAC72D
    Copy CRC 18DAC72D
    Copy OK
    Track 5
    Filename C:\Documents and Settings\Администратор\Рабочий стол\himera\Химера - n u i h u l i\05 - Химера - Мальчиш-Плохиш.wav
    Peak level 94.6 %
    Track quality 100.0 %
    Test CRC 04F39FA9
    Copy CRC 04F39FA9
    Copy OK
    Track 6
    Filename C:\Documents and Settings\Администратор\Рабочий стол\himera\Химера - n u i h u l i\06 - Химера - Ну-и-хули.wav
    Peak level 94.1 %
    Track quality 100.0 %
    Test CRC 1A388868
    Copy CRC 1A388868
    Copy OK
    Track 7
    Filename C:\Documents and Settings\Администратор\Рабочий стол\himera\Химера - n u i h u l i\07 - Химера - Скандинавец.wav
    Peak level 95.0 %
    Track quality 100.0 %
    Test CRC DC4C42F3
    Copy CRC DC4C42F3
    Copy OK
    Track 8
    Filename C:\Documents and Settings\Администратор\Рабочий стол\himera\Химера - n u i h u l i\08 - Химера - Крылья.wav
    Peak level 94.6 %
    Track quality 100.0 %
    Test CRC 793F4D2A
    Copy CRC 793F4D2A
    Copy OK
    Track 9
    Filename C:\Documents and Settings\Администратор\Рабочий стол\himera\Химера - n u i h u l i\09 - Химера - Зайцы.wav
    Peak level 92.1 %
    Track quality 100.0 %
    Test CRC 0CB692B4
    Copy CRC 0CB692B4
    Copy OK
    Track 10
    Filename C:\Documents and Settings\Администратор\Рабочий стол\himera\Химера - n u i h u l i\10 - Химера - Изгой.wav
    Peak level 94.7 %
    Track quality 99.9 %
    Test CRC EF093DDD
    Copy CRC EF093DDD
    Copy OK
    Track 11
    Filename C:\Documents and Settings\Администратор\Рабочий стол\himera\Химера - n u i h u l i\11 - Химера - Штурман.wav
    Peak level 88.7 %
    Track quality 100.0 %
    Test CRC 237110FD
    Copy CRC 237110FD
    Copy OK
    Track 12
    Filename C:\Documents and Settings\Администратор\Рабочий стол\himera\Химера - n u i h u l i\12 - Химера - Льды.wav
    Peak level 92.5 %
    Track quality 100.0 %
    Test CRC E97C3BE8
    Copy CRC E97C3BE8
    Copy OK
    Track 13
    Filename C:\Documents and Settings\Администратор\Рабочий стол\himera\Химера - n u i h u l i\13 - Химера - Марсианка.wav
    Peak level 94.2 %
    Track quality 100.0 %
    Test CRC A48A7C3D
    Copy CRC A48A7C3D
    Copy OK
    Track 14
    Filename C:\Documents and Settings\Администратор\Рабочий стол\himera\Химера - n u i h u l i\14 - Химера - Кровь.wav
    Peak level 93.9 %
    Track quality 100.0 %
    Test CRC B8C767D9
    Copy CRC B8C767D9
    Copy OK
    Track 15
    Filename C:\Documents and Settings\Администратор\Рабочий стол\himera\Химера - n u i h u l i\15 - Химера - My Guitar Hangs Itself.wav
    Peak level 89.7 %
    Track quality 100.0 %
    Test CRC 97FF781A
    Copy CRC 97FF781A
    Copy OK
    Track 16
    Filename C:\Documents and Settings\Администратор\Рабочий стол\himera\Химера - n u i h u l i\16 - Химера - По приютам.wav
    Peak level 95.7 %
    Track quality 100.0 %
    Test CRC BE7D79D4
    Copy CRC BE7D79D4
    Copy OK
    No errors occurred
    End of status report

    Химера - Zudwa (1996)
    Жанр. Альтернатива
    Год выпуска. 1996
    Формат. FLAC (tracks + .cue)
    Битрейт аудио. lossless
    Продолжительность. 54 min
    Трэклист.
    1. Парус
    2. Рукоятка
    3. Тотальный Джаз
    4. Контроль
    5. Карма Мира
    6. ZUDWA
    7. Капитан Немо
    8. Бред
    9. Гурьба
    10. В Рай
    11. Фикусы
    12. Вода - Огонь
    13. Джирмайда

    Exact Audio Copy V0.99 prebeta 4 from 23. January 2008
    EAC extraction logfile from 3. November 2008, 22:04
    Химера / ZUDWA
    Used drive. ASUS DRW-1814BL Adapter: 5 ID: 0
    Read mode. Secure
    Utilize accurate stream. Yes
    Defeat audio cache. Yes
    Make use of C2 pointers. No
    Read offset correction. 6
    Overread into Lead-In and Lead-Out. No
    Fill up missing offset samples with silence. Yes
    Delete leading and trailing silent blocks. No
    Null samples used in CRC calculations. Yes
    Used interface. Installed external ASPI interface
    Gap handling. Appended to previous track
    Used output format. User Defined Encoder
    Selected bitrate. 320 kBit/s
    Quality. High
    Add ID3 tag. No
    Command line compressor. C:\Program Files\Exact Audio Copy\Flac\flac.exe
    Additional command line options. -8 -A tukey(0.25) -A gauss(0.1875) -b 4096 -V -T "artist=%a" -T "title=%t" -T "album=%g" -T "date=%y" -T "tracknumber=%n" -T "genre=%m" %s --sector-align
    TOC of the extracted CD
    Track | Start | Length | Start sector | End sector
    ---------------------------------------------------------
    1 | 0:01.00 | 6:09.50 | 75 | 27799
    2 | 6:10.50 | 3:03.59 | 27800 | 41583
    3 | 9:14.34 | 6:09.22 | 41584 | 69280
    4 | 15:23.56 | 5:45.25 | 69281 | 95180
    5 | 21:09.06 | 0:51.25 | 95181 | 99030
    6 | 22:00.31 | 6:23.51 | 99031 | 127806
    7 | 28:24.07 | 5:43.34 | 127807 | 153565
    8 | 34:07.41 | 1:02.08 | 153566 | 158223
    9 | 35:09.49 | 2:31.49 | 158224 | 169597
    10 | 37:41.23 | 3:09.15 | 169598 | 183787
    11 | 40:50.38 | 6:28.31 | 183788 | 212918
    12 | 47:18.69 | 6:58.62 | 212919 | 244330
    13 | 54:17.56 | 0:25.08 | 244331 | 246213
    Track 1
    Filename C:\Documents and Settings\Администратор\Рабочий стол\himera\Химера - ZUDWA\01 - Химера - Парус.wav
    Pre-gap length 0:00:03.00
    Peak level 94.4 %
    Track quality 100.0 %
    Test CRC A0100D2C
    Copy CRC A0100D2C
    Copy OK
    Track 2
    Filename C:\Documents and Settings\Администратор\Рабочий стол\himera\Химера - ZUDWA\02 - Химера - Рукоятка.wav
    Pre-gap length 0:00:01.35
    Peak level 94.4 %
    Track quality 100.0 %
    Test CRC 8A685669
    Copy CRC 8A685669
    Copy OK
    Track 3
    Filename C:\Documents and Settings\Администратор\Рабочий стол\himera\Химера - ZUDWA\03 - Химера - Тотальный джаз.wav
    Pre-gap length 0:00:01.35
    Peak level 94.4 %
    Track quality 100.0 %
    Test CRC FD347FC4
    Copy CRC FD347FC4
    Copy OK
    Track 4
    Filename C:\Documents and Settings\Администратор\Рабочий стол\himera\Химера - ZUDWA\04 - Химера - Контроль.wav
    Pre-gap length 0:00:01.35
    Peak level 94.4 %
    Track quality 99.9 %
    Test CRC 0882762C
    Copy CRC 0882762C
    Copy OK
    Track 5
    Filename C:\Documents and Settings\Администратор\Рабочий стол\himera\Химера - ZUDWA\05 - Химера - Карма мира.wav
    Pre-gap length 0:00:01.35
    Peak level 94.4 %
    Track quality 100.0 %
    Test CRC F7E8E04A
    Copy CRC F7E8E04A
    Copy OK
    Track 6
    Filename C:\Documents and Settings\Администратор\Рабочий стол\himera\Химера - ZUDWA\06 - Химера - ZUDWA.wav
    Pre-gap length 0:00:01.35
    Peak level 94.4 %
    Track quality 100.0 %
    Test CRC 28959E0F
    Copy CRC 28959E0F
    Copy OK
    Track 7
    Filename C:\Documents and Settings\Администратор\Рабочий стол\himera\Химера - ZUDWA\07 - Химера - Капитан Немо.wav
    Pre-gap length 0:00:01.35
    Peak level 94.4 %
    Track quality 100.0 %
    Test CRC 57D8F5F6
    Copy CRC 57D8F5F6
    Copy OK
    Track 8
    Filename C:\Documents and Settings\Администратор\Рабочий стол\himera\Химера - ZUDWA\08 - Химера - Бред.wav
    Pre-gap length 0:00:01.35
    Peak level 94.4 %
    Track quality 99.8 %
    Test CRC 213DF78D
    Copy CRC 213DF78D
    Copy OK
    Track 9
    Filename C:\Documents and Settings\Администратор\Рабочий стол\himera\Химера - ZUDWA\09 - Химера - Гурьба.wav
    Pre-gap length 0:00:01.35
    Peak level 94.4 %
    Track quality 100.0 %
    Test CRC 48E8EEB1
    Copy CRC 48E8EEB1
    Copy OK
    Track 10
    Filename C:\Documents and Settings\Администратор\Рабочий стол\himera\Химера - ZUDWA\10 - Химера - В рай.wav
    Pre-gap length 0:00:01.35
    Peak level 94.4 %
    Track quality 100.0 %
    Test CRC 3FDE067A
    Copy CRC 3FDE067A
    Copy OK
    Track 11
    Filename C:\Documents and Settings\Администратор\Рабочий стол\himera\Химера - ZUDWA\11 - Химера - Фикусы.wav
    Pre-gap length 0:00:01.35
    Peak level 94.4 %
    Track quality 100.0 %
    Test CRC 471B0727
    Copy CRC 471B0727
    Copy OK
    Track 12
    Filename C:\Documents and Settings\Администратор\Рабочий стол\himera\Химера - ZUDWA\12 - Химера - Вода-огонь.wav
    Pre-gap length 0:00:01.35
    Peak level 94.4 %
    Track quality 100.0 %
    Test CRC A01568FF
    Copy CRC A01568FF
    Copy OK
    Track 13
    Filename C:\Documents and Settings\Администратор\Рабочий стол\himera\Химера - ZUDWA\13 - Химера - Джирмайда.wav
    Pre-gap length 0:00:01.35
    Peak level 23.3 %
    Track quality 100.0 %
    Test CRC FB500799
    Copy CRC FB500799
    Copy OK
    No errors occurred
    End of status report

    Химера - Zudwa-DWA (1996)
    Жанр. Альтернатива
    Год выпуска. 1996
    Формат. FLAC (tracks + .cue)
    Битрейт аудио. lossless
    Продолжительность. 42 min
    Трэклист.
    1. Петр
    2. Ай-лю-ли
    3. Зайцы
    4. Свистки
    5. Дождик
    6. Вороны
    7. Графин
    8. Лошадь
    9. Челленджер
    10. Узлы
    11. Счастливого Пути
    12. Сюзанна
    13. Фантазеры
    14. Bonus Sound
    15. Клоп (Remix)

    Exact Audio Copy V0.99 prebeta 4 from 23. January 2008
    EAC extraction logfile from 4. November 2008, 1:49
    Химера / ZUDWA-DWA Unpublished
    Used drive. ASUS DRW-1814BL Adapter: 1 ID: 1
    Read mode. Secure
    Utilize accurate stream. Yes
    Defeat audio cache. Yes
    Make use of C2 pointers. No
    Read offset correction. 6
    Overread into Lead-In and Lead-Out. No
    Fill up missing offset samples with silence. Yes
    Delete leading and trailing silent blocks. No
    Null samples used in CRC calculations. Yes
    Used interface. Installed external ASPI interface
    Gap handling. Appended to previous track
    Used output format. User Defined Encoder
    Selected bitrate. 320 kBit/s
    Quality. High
    Add ID3 tag. No
    Command line compressor. C:\Program Files\FLAC\flac.exe
    Additional command line options. -V -8 -T "artist=%a" -T "title=%t" -T "album=%g" -T "date=%y" -T "tracknumber=%n" -T "genre=%m" %s
    TOC of the extracted CD
    Track | Start | Length | Start sector | End sector
    ---------------------------------------------------------
    1 | 0:00.00 | 2:15.18 | 0 | 10142
    2 | 2:15.18 | 3:07.40 | 10143 | 24207
    3 | 5:22.58 | 3:41.10 | 24208 | 40792
    4 | 9:03.68 | 2:18.19 | 40793 | 51161
    5 | 11:22.12 | 1:32.38 | 51162 | 58099
    6 | 12:54.50 | 3:27.72 | 58100 | 73696
    7 | 16:22.47 | 6:09.42 | 73697 | 101413
    8 | 22:32.14 | 1:19.04 | 101414 | 107342
    9 | 23:51.18 | 2:51.03 | 107343 | 120170
    10 | 26:42.21 | 4:01.37 | 120171 | 138282
    11 | 30:43.58 | 3:10.38 | 138283 | 152570
    12 | 33:54.21 | 1:23.64 | 152571 | 158859
    13 | 35:18.10 | 0:53.10 | 158860 | 162844
    14 | 36:11.20 | 0:08.02 | 162845 | 163446
    15 | 36:19.22 | 6:26.37 | 163447 | 192433
    Track 1
    Filename C:\Химера - ZUDWA-DWA Unpublished\Химера - 1996 - ZUDWA-DWA Unpublished\01 - Пётр.wav
    Pre-gap length 0:00:02.00
    Peak level 64.7 %
    Track quality 100.0 %
    Test CRC 0929C851
    Copy CRC 0929C851
    Copy OK
    Track 2
    Filename C:\Химера - ZUDWA-DWA Unpublished\Химера - 1996 - ZUDWA-DWA Unpublished\02 - Ай-лю-ли.wav
    Peak level 100.0 %
    Track quality 100.0 %
    Test CRC 0BF22ED1
    Copy CRC 0BF22ED1
    Copy OK
    Track 3
    Filename C:\Химера - ZUDWA-DWA Unpublished\Химера - 1996 - ZUDWA-DWA Unpublished\03 - Зайцы.wav
    Peak level 75.0 %
    Track quality 99.9 %
    Test CRC 50E72C97
    Copy CRC 50E72C97
    Copy OK
    Track 4
    Filename C:\Химера - ZUDWA-DWA Unpublished\Химера - 1996 - ZUDWA-DWA Unpublished\04 - Свистки.wav
    Peak level 45.7 %
    Track quality 100.0 %
    Test CRC C3BD8CEB
    Copy CRC C3BD8CEB
    Copy OK
    Track 5
    Filename C:\Химера - ZUDWA-DWA Unpublished\Химера - 1996 - ZUDWA-DWA Unpublished\05 - Дождик.wav
    Peak level 47.3 %
    Track quality 100.0 %
    Test CRC 77D54C96
    Copy CRC 77D54C96
    Copy OK
    Track 6
    Filename C:\Химера - ZUDWA-DWA Unpublished\Химера - 1996 - ZUDWA-DWA Unpublished\06 - Вороны.wav
    Peak level 78.5 %
    Track quality 100.0 %
    Test CRC 98B31EC7
    Copy CRC 98B31EC7
    Copy OK
    Track 7
    Filename C:\Химера - ZUDWA-DWA Unpublished\Химера - 1996 - ZUDWA-DWA Unpublished\07 - Графин.wav
    Peak level 59.9 %
    Track quality 100.0 %
    Test CRC 75BE7007
    Copy CRC 75BE7007
    Copy OK
    Track 8
    Filename C:\Химера - ZUDWA-DWA Unpublished\Химера - 1996 - ZUDWA-DWA Unpublished\08 - Лошадь.wav
    Peak level 86.3 %
    Track quality 100.0 %
    Test CRC D67E61F1
    Copy CRC D67E61F1
    Copy OK
    Track 9
    Filename C:\Химера - ZUDWA-DWA Unpublished\Химера - 1996 - ZUDWA-DWA Unpublished\09 - Челленджер.wav
    Peak level 89.6 %
    Track quality 100.0 %
    Test CRC E2C156FD
    Copy CRC E2C156FD
    Copy OK
    Track 10
    Filename C:\Химера - ZUDWA-DWA Unpublished\Химера - 1996 - ZUDWA-DWA Unpublished\10 - Узлы.wav
    Peak level 90.4 %
    Track quality 100.0 %
    Test CRC 31639A51
    Copy CRC 31639A51
    Copy OK
    Track 11
    Filename C:\Химера - ZUDWA-DWA Unpublished\Химера - 1996 - ZUDWA-DWA Unpublished\11 - Счастливого пути.wav
    Peak level 84.4 %
    Track quality 100.0 %
    Test CRC CFAF6D74
    Copy CRC CFAF6D74
    Copy OK
    Track 12
    Filename C:\Химера - ZUDWA-DWA Unpublished\Химера - 1996 - ZUDWA-DWA Unpublished\12 - Сюзанна.wav
    Peak level 91.5 %
    Track quality 100.0 %
    Test CRC B91D5D4E
    Copy CRC B91D5D4E
    Copy OK
    Track 13
    Filename C:\Химера - ZUDWA-DWA Unpublished\Химера - 1996 - ZUDWA-DWA Unpublished\13 - Фантазёры.wav
    Peak level 90.8 %
    Track quality 99.7 %
    Test CRC C152E4D2
    Copy CRC C152E4D2
    Copy OK
    Track 14
    Filename C:\Химера - ZUDWA-DWA Unpublished\Химера - 1996 - ZUDWA-DWA Unpublished\14 - Bonus Sound.wav
    Peak level 28.9 %
    Track quality 100.0 %
    Test CRC 1650B257
    Copy CRC 1650B257
    Copy OK
    Track 15
    Filename C:\Химера - ZUDWA-DWA Unpublished\Химера - 1996 - ZUDWA-DWA Unpublished\15 - Клоп (Remix).wav
    Peak level 78.1 %
    Track quality 100.0 %
    Test CRC 84987E29
    Copy CRC 84987E29
    Copy OK
    No errors occurred
    End of status report