Софт-Архив

скачать торрент луч на повороте

Рейтинг: 4.3/5.0 (72 проголосовавших)

Категория: Торрент-файлы

Описание

Луч на повороте (2010) DVBRip

Луч на повороте (2012) DVBRip Русское название: Луч на повороте
Год выпуска: 2010
Выпущено: Россия
Жанр: Криминал, Боевик

Описание фильма:
Молодой парень, обучающийся в консерватории на оперного певца, по ошибке попадает в тюрьму. Его кумир — Лучано Паваротти, но сокамерники, не разбирающиеся в классической музыке, услышали вместо имени «луч на повороте». Так к герою и привязалась кличка — Луч.

Режиссер: Сергей Комаров
Актеры: Владимир Яглыч, Василий Малов, Анна Назарова, Тимофей Трибунцев, Марина Голуб, Дмитрий Лавров, Константин Силаков, Роман Хан

Продолжительность: 00:45:00 серия

Видеокодек: Xvid
Битрейт видео:

1355 kb/s
Размер кадра: 720x400
Качество видео: DVBRip
Аудиокодек: MP3, 2 ch
Битрейт аудио: 128 kb/s

Общее
Полное имя : D:\Раздачи\Луч на повороте.2012\Луч на повороте. 1.avi
Формат : AVI
Формат/Информация : Audio Video Interleave
Размер файла : 478 Мбайт
Продолжительность : 45 м.
Общий поток : 1483 Кбит/сек
Программа кодирования : VirtualDubMod 1.5.10.3 | (build 2550/release)
Библиотека кодирования : VirtualDubMod build 2550/release

Видео
Идентификатор : 0
Формат : MPEG-4 Visual
Профиль формата : Advanced Simple@L5
Параметр BVOP формата : 2
Параметр QPel формата : Нет
Параметр GMC формата : Без точки перехода
Параметр матрицы формата : Default (MPEG)
Идентификатор кодека : XVID
Идентификатор кодека/Подсказка : XviD
Продолжительность : 45 м.
Битрейт : 1345 Кбит/сек
Ширина : 720 пикселей
Высота : 400 пикселей
Соотношение сторон : 16:9
Частота кадров : 25,000 кадров/сек
Цветовое пространство : YUV
Субдискретизация насыщенности : 4:2:0
Битовая глубина : 8 бит
Тип развёртки : Прогрессивная
Метод сжатия : С потерями
Бит/(Пиксели*Кадры) : 0.187
Размер потока : 433 Мбайт (91%)
Библиотека кодирования : XviD 1.2.1 (UTC 2008-12-04)

Аудио
Идентификатор : 1
Формат : MPEG Audio
Версия формата : Version 1
Профиль формата : Layer 3
Идентификатор кодека : 55
Идентификатор кодека/Подсказка : MP3
Продолжительность : 45 м.
Вид битрейта : Постоянный
Битрейт : 128 Кбит/сек
Каналы : 2 канала
Частота : 48,0 КГц
Метод сжатия : С потерями
Размер потока : 41,2 Мбайт (9%)
Выравнивание : Соединение по промежуткам
Продолжительность промежутка : 40 мс. (1,00 видеокадр)
Время предзагрузки промежутка : 504 мс.
Библиотека кодирования : LAME3.98r
Настройки программы : -m s -V 4 -q 2 -lowpass 17 -b 128

Общее
Полное имя : D:\Раздачи\Луч на повороте.2012\Луч на повороте. 2.avi
Формат : AVI
Формат/Информация : Audio Video Interleave
Размер файла : 496 Мбайт
Продолжительность : 45 м.
Общий поток : 1509 Кбит/сек
Программа кодирования : VirtualDubMod 1.5.10.3 | www.virtualdub-fr.org || (build 2550/release)
Библиотека кодирования : VirtualDubMod build 2550/release

Видео
Идентификатор : 0
Формат : MPEG-4 Visual
Профиль формата : Advanced Simple@L5
Параметр BVOP формата : 2
Параметр QPel формата : Нет
Параметр GMC формата : Без точки перехода
Параметр матрицы формата : Default (MPEG)
Идентификатор кодека : XVID
Идентификатор кодека/Подсказка : XviD
Продолжительность : 45 м.
Битрейт : 1371 Кбит/сек
Ширина : 720 пикселей
Высота : 400 пикселей
Соотношение сторон : 16:9
Частота кадров : 25,000 кадров/сек
Цветовое пространство : YUV
Субдискретизация насыщенности : 4:2:0
Битовая глубина : 8 бит
Тип развёртки : Прогрессивная
Метод сжатия : С потерями
Бит/(Пиксели*Кадры) : 0.190
Размер потока : 450 Мбайт (91%)
Библиотека кодирования : XviD 1.2.1 (UTC 2008-12-04)

Аудио
Идентификатор : 1
Формат : MPEG Audio
Версия формата : Version 1
Профиль формата : Layer 3
Идентификатор кодека : 55
Идентификатор кодека/Подсказка : MP3
Продолжительность : 45 м.
Вид битрейта : Постоянный
Битрейт : 128 Кбит/сек
Каналы : 2 канала
Частота : 48,0 КГц
Метод сжатия : С потерями
Размер потока : 42,1 Мбайт (8%)
Выравнивание : Соединение по промежуткам
Продолжительность промежутка : 40 мс. (1,00 видеокадр)
Время предзагрузки промежутка : 504 мс.
Библиотека кодирования : LAME3.98r
Настройки программы : -m s -V 4 -q 2 -lowpass 17 -b 128

скачать торрент луч на повороте:

  • скачать
  • скачать
  • Другие статьи

    Скачать Луч на повороте (2010) DVBRip торрент на

    - Луч на повороте (2012) DVBRip -

    Скачать торрент луч на повороте

    Русское название: Луч на повороте
    Год выпуска: 2010
    Выпущено: Россия
    Жанр: Криминал, Боевик
    Описание фильма:
    Молодой парень, обучающийся в консерватории на оперного певца, по ошибке попадает в тюрьму. Его кумир — Лучано Паваротти, но сокамерники, не разбирающиеся в классической музыке, услышали вместо имени «луч на повороте». Так к герою и привязалась кличка — Луч.
    Режиссер: Сергей Комаров
    Актеры: Владимир Яглыч, Василий Малов, Анна Назарова, Тимофей Трибунцев, Марина Голуб, Дмитрий Лавров, Константин Силаков, Роман Хан
    Продолжительность: 00:45:00 серия
    Скачать торрент луч на поворотеСкачать торрент луч на повороте
    Видеокодек: Xvid
    Битрейт видео:

    1355 kb/s
    Размер кадра: 720x400
    Качество видео: DVBRip
    Аудиокодек: MP3, 2 ch
    Битрейт аудио: 128 kb/s

    Общее
    Полное имя : D:\Раздачи\Луч на повороте.2012\Луч на повороте. 1.avi
    Формат : AVI
    Формат/Информация : Audio Video Interleave
    Размер файла : 478 Мбайт
    Продолжительность : 45 м.
    Общий поток : 1483 Кбит/сек
    Программа кодирования : VirtualDubMod 1.5.10.3 | (build 2550/release)
    Библиотека кодирования : VirtualDubMod build 2550/release
    Видео
    Идентификатор : 0
    Формат : MPEG-4 Visual
    Профиль формата : Advanced [email protected]
    Параметр BVOP формата : 2
    Параметр QPel формата : Нет
    Параметр GMC формата : Без точки перехода
    Параметр матрицы формата : Default (MPEG)
    Идентификатор кодека : XVID
    Идентификатор кодека/Подсказка : XviD
    Продолжительность : 45 м.
    Битрейт : 1345 Кбит/сек
    Ширина : 720 пикселей
    Высота : 400 пикселей
    Соотношение сторон : 16:9
    Частота кадров : 25,000 кадров/сек
    Цветовое пространство : YUV
    Субдискретизация насыщенности : 4:2:0
    Битовая глубина : 8 бит
    Тип развёртки : Прогрессивная
    Метод сжатия : С потерями
    Бит/(Пиксели*Кадры) : 0.187
    Размер потока : 433 Мбайт (91%)
    Библиотека кодирования : XviD 1.2.1 (UTC 2008-12-04)
    Аудио
    Идентификатор : 1
    Формат : MPEG Audio
    Версия формата : Version 1
    Профиль формата : Layer 3
    Идентификатор кодека : 55
    Идентификатор кодека/Подсказка : MP3
    Продолжительность : 45 м.
    Вид битрейта : Постоянный
    Битрейт : 128 Кбит/сек
    Каналы : 2 канала
    Частота : 48,0 КГц
    Метод сжатия : С потерями
    Размер потока : 41,2 Мбайт (9%)
    Выравнивание : Соединение по промежуткам
    Продолжительность промежутка : 40 мс. (1,00 видеокадр)
    Время предзагрузки промежутка : 504 мс.
    Библиотека кодирования : LAME3.98r
    Настройки программы : -m s -V 4 -q 2 -lowpass 17 -b 128
    Общее
    Полное имя : D:\Раздачи\Луч на повороте.2012\Луч на повороте. 2.avi
    Формат : AVI
    Формат/Информация : Audio Video Interleave
    Размер файла : 496 Мбайт
    Продолжительность : 45 м.
    Общий поток : 1509 Кбит/сек
    Программа кодирования : VirtualDubMod 1.5.10.3 | [url=http://www.virtualdub-fr.org]www.virtualdub-fr.org[/url] || (build 2550/release)
    Библиотека кодирования : VirtualDubMod build 2550/release
    Видео
    Идентификатор : 0
    Формат : MPEG-4 Visual
    Профиль формата : Advanced [email protected]
    Параметр BVOP формата : 2
    Параметр QPel формата : Нет
    Параметр GMC формата : Без точки перехода
    Параметр матрицы формата : Default (MPEG)
    Идентификатор кодека : XVID
    Идентификатор кодека/Подсказка : XviD
    Продолжительность : 45 м.
    Битрейт : 1371 Кбит/сек
    Ширина : 720 пикселей
    Высота : 400 пикселей
    Соотношение сторон : 16:9
    Частота кадров : 25,000 кадров/сек
    Цветовое пространство : YUV
    Субдискретизация насыщенности : 4:2:0
    Битовая глубина : 8 бит
    Тип развёртки : Прогрессивная
    Метод сжатия : С потерями
    Бит/(Пиксели*Кадры) : 0.190
    Размер потока : 450 Мбайт (91%)
    Библиотека кодирования : XviD 1.2.1 (UTC 2008-12-04)
    Аудио
    Идентификатор : 1
    Формат : MPEG Audio
    Версия формата : Version 1
    Профиль формата : Layer 3
    Идентификатор кодека : 55
    Идентификатор кодека/Подсказка : MP3
    Продолжительность : 45 м.
    Вид битрейта : Постоянный
    Битрейт : 128 Кбит/сек
    Каналы : 2 канала
    Частота : 48,0 КГц
    Метод сжатия : С потерями
    Размер потока : 42,1 Мбайт (8%)
    Выравнивание : Соединение по промежуткам
    Продолжительность промежутка : 40 мс. (1,00 видеокадр)
    Время предзагрузки промежутка : 504 мс.
    Библиотека кодирования : LAME3.98r
    Настройки программы : -m s -V 4 -q 2 -lowpass 17 -b 128

    Скриншоты: Скачать торрент луч на поворотеСкачать торрент луч на поворотеСкачать торрент луч на поворотеСкачать торрент луч на повороте
    Скачать торрент луч на поворотеСкачать торрент луч на поворотеСкачать торрент луч на поворотеСкачать торрент луч на повороте Время раздачи: 24/7, до 5 скачавших.

    Луч на повороте — Luch na povorote (2012) Смотреть Сериал онлайн или Cкачать торрент бесплатно

    Сериал Луч на повороте — Luch na povorote (2012)

    Скачать торрент луч на повороте

    Год выпуска. 2012
    Страна. Россия
    Жанр. криминал
    Продолжительность. 1 сезон
    Перевод. Русский (Оригинал)

    Режиссер. Сергей Комаров
    В ролях. Владимир Яглыч, Василий Малов, Анна Назарова, Тимофей Трибунцев, Марина Голуб, Дмитрий Лавров, Константин Силаков, Роман Хан

    Описание Сериала. Главный герой случайно попадает в тюрьму, хотя на самом деле он учится на оперного певца в консерватории. Сокамерникам он рассказал о своем кумире Лучано Паваротти, но они не разбираются в классической музыки и услышали, вместо имени известного всему миру певца, «луч на повороте». Теперь у главного героя кличка Луч — так решили называть его товарищи по несчастью.

    Смотреть онлайн сериал: Луч на повороте — Luch na povorote (2012)

    Скачать фильмы Луч на повороте 2012 - ТОРРЕНТИНО - торрент трекер - бесплатно WEB-DL

    Луч на повороте [01 из 02] (2012) WEBRip

    Информация о фильме
    Название: Луч на повороте
    Год выхода: 2012
    Страна: Россия
    Производство: киностудия «БАТ продакшн»
    Жанр: Криминал
    Режиссер: Сергей Комаров (III)
    В ролях: Владимир Яглыч, Василий Малов, Анна Назарова, Тимофей Трибунцев, Марина Голуб, Дмитрий Лавров, Константин Силаков, Роман Хан
    Описание:
    Паренек поступает в консерваторию, где записывается на курсы оперного пения. Дела у него идут отлично, он делает определенные успехи, за что получает похвалу преподавателей. Но однажды, когда ничего не предвещает опасности, с молодым человеком случается трагедия. Обстоятельства складываются так, что на будущего оперного певца ложатся подозрения в преступлении, которого он не совершал. В ходе дела не находится никаких улик, опровергающих виновность героя, и его осуждают с последующим заключением. В тюрьме главный герой рассказывает сокамерникам о своем кумире Лучано Паваротти. Но необразованные уголовники совершенно ничего не понимают в опере и интерпретируют имя великого певца как «луч на повороте». С тех пор к парню словно приклеивается новое имя – Луч.
    Файл
    Кодек: XviD
    Качество: WEBRip
    Видео: 720x400 (1.80:1), 25 fps, XviD build 50

    1345 kbps avg, 0.19 bit/pixel
    Звук: 48 kHz, MPEG Layer 3, 2 ch,

    128.00 kbps avg
    Продолжительность:

    Похожие торренты

    Скачать торрент луч на повороте

    Скачать торрент луч на повороте

    Скачать торрент луч на повороте

    Скачать торрент луч на повороте

    Скачать торрент луч на повороте

    Комментарии

    К сожалению пока никто не оставил комментарий ;(

    © 2009–2017, Торрентино
    По всем вопросам обращаться на admin@torrentino.tv

    Правообладателям просьба писать вежливо и своевременно: abuse@torrentino.tv и мы отнесемся к вашей просьбе с пониманием.

    Луч на повороте 01 из 02 (2012) WEBRip, MB

    Скачать торрент луч на повороте

    Скачать торрент луч на повороте

    Описание:
    Паренек поступает в консерваторию, где записывается на курсы оперного пения. Дела у него идут отлично, он делает определенные успехи, за что получает похвалу преподавателей. Но однажды, когда ничего не предвещает опасности, с молодым человеком случается трагедия. Обстоятельства складываются так, что на будущего оперного певца ложатся подозрения в преступлении, которого он не совершал. В ходе дела не находится никаких улик, опровергающих виновность героя, и его осуждают с последующим заключением. В тюрьме главный герой рассказывает сокамерникам о своем кумире Лучано Паваротти. Но необразованные уголовники совершенно ничего не понимают в опере и интерпретируют имя великого певца как «луч на повороте». С тех пор к парню словно приклеивается новое имя – Луч.

    Информация о фильме
    Название: Луч на повороте
    Год выхода: 2012
    Страна: Россия
    Производство: киностудия «БАТ продакшн»
    Жанр: Криминал
    Режиссер: Сергей Комаров (III)
    В ролях: Владимир Яглыч, Василий Малов, Анна Назарова, Тимофей Трибунцев, Марина Голуб, Дмитрий Лавров, Константин Силаков, Роман Хан
    Файл
    Кодек: XviD
    Качество: WEBRip
    Видео: 720x400 (1.80:1), 25 fps, XviD build 50

    1345 kbps avg, 0.19 bit/pixel
    Звук: 48 kHz, MPEG Layer 3, 2 ch,

    128.00 kbps avg
    Продолжительность:

    Скачать торрент луч на повороте

    Скачать торрент луч на повороте

    Скачать торрент луч на повороте