Софт-Архив

михаил шуфутинский скачать клипы торрент

Рейтинг: 4.9/5.0 (21 проголосовавших)

Категория: Торрент-файлы

Описание

Михаил Шуфутинский: Grand Сollection (2011) DVDRip - Торрент

Музыка . Видео » Шансон. Клипы

Михаил шуфутинский скачать клипы торрент

Информация о фильме
Название. Михаил Шуфутинский: Grand Сollection
Год выхода. 2011
Жанр. Шансон
Исполнитель. Михаил Шуфутинский

О фильме :
Двадцать лучших концертных выступлений короля отечественного шансона Михаила Шуфутинского изданы в серии «Grand Collection». В диск включены любимые народом хиты, которые на протяжении последних двадцати лет неоднократно становились лидерами хит-парадов. Начиная с «Душа болит», «Сингарелла» и заканчивая песнями последних лет - «Наколочка», «От пункта Я до пункта Ты», «Соло». В нашей стране песни Михаила Шуфутинского стали известны и популярны благодаря аудиокассетам «Побег» (1982), «Атаман» (1983), «Белый аист» (1987), «Нет проблем» (1988), «Подмосковные вечера» (1989), «Моя жизнь» (1991), «Тихий Дон» (1992) и др. В 1990 Михаил Шуфутинский, впервые приехав в Россию, выступал на стадионах. С тех пор постоянно работает в России. Записал несколько дисков («Миша Шуфутинский в Москве», «Лучшие песни», «Гуляй, душа» и др.). Выступает в Центральном Концертном зале (ГЦКЗ «Россия») с сольными концертами, в качестве продюсера создает девичий дуэт «Вкус меда» (1996), активно сотрудничает с композитором Игорем Крутым, песни которого записал в своей студии в Лос-Анджелесе на диск в сопровождении бэнда. Ведет на «Авторадио» рубрику «Шуфутинский клуб», где встречается с интересными людьми шоу-бизнеса, и не только. Занимается общественной деятельностью.

01. Графиня
02. Бутылка вина
03. Вязаный жакет
04. Моя Одесса
05. Ах, эти ночи
06. Свечи
07. Сингарелла
08. Ко всем чертям
09. Добрый вечер, господа
10. Москва - Владивосток
11. Наколочка
12. Левый берег Дона
13. Ночной гость
14. От пункта "я" до пункта "ты"
15. Играл скрипач
16. Обожаю
17. Душа болит
18. Марджанджа
19. Третье сентября
20. Соло

Страна. Россия
Студия. Квадро-Диск
Продолжительность. 01:14:40
Перевод. Не требуется

2356 kbps avg, 0.24 bit/pixel
Звук. 48 kHz, AC3 Dolby Digital, 2/0 (L,R) ch,

Михаил шуфутинский скачать клипы торрентМихаил шуфутинский скачать клипы торрентМихаил шуфутинский скачать клипы торрентМихаил шуфутинский скачать клипы торрентМихаил шуфутинский скачать клипы торрентМихаил шуфутинский скачать клипы торрент

Добавление комментария:

михаил шуфутинский скачать клипы торрент:

  • скачать
  • скачать
  • Другие статьи

    Михаил Шуфутинский - Пойду однажды по Руси

    Михаил шуфутинский скачать клипы торрент

    Михаил шуфутинский скачать клипы торрент

    Исполнитель. Михаил Шуфутинский
    Оригинальное название. М. Шуфутинский - Пойду однажды по Руси.
    Год выпуска. 2005
    Жанр. Шансон
    Качество. DVDRip
    Формат. AVI
    Видео кодек. Другой MPEG4
    Аудио кодек. MP3
    Видео. Bit rate:1708kbps, Size:768х576, Frame rate:25.00 fps
    Аудио. Bit rate:192kbps, 48000Hz, Stereo
    Размер. 1.83 GB
    Продолжительность. 02:33:00
    Язык. Русский
    Описание :Концерты "Пойду однажды по Руси" состоялись 12 и 13 апреля 2003 года в предверии 55-летнего юбилея Михаила Захаровича Шуфутинского и стали настоящим событием в истории российского Шансона. Режиссеру-постановщику Андрису Лиепе и художнику Анатолию Нежному удалось создать настоящий спектакль, вобравший в себя и послевоенную Москву и атмосферу современного мегаполиса

    01. Тополя
    02. Ну и ради бога
    03. Наливай, поговорим
    04. Пацаны
    05. Моя Одесса
    06. Левый берег Дона
    07. Наколочка
    08. За милых дам
    09. Я поеду на юг
    10. Аленка
    11. Играл скрипач
    12. Золотая скрипка
    13. Костровая
    14. Сингарелла
    15. Я родился в Москве
    16. А бабы последнее дело.
    17. Золотой иероглиф
    18. Бум-Бум
    19. Малолетка
    20. Пальма де Майорка
    21. На самой южной Ривьере
    22. Свечи
    23. Марджанджа
    24. Багульник
    25. Душа болит
    26. Пойду однажды по Руси

    Новый клип Михаил Шуфутинский - Я просто медленно люблю - Скачать клипы, смотреть клипы онлайн

    (4 голоса, среднее 4.50 из 5)

    Новый клип Михаил Шуфутинский - Я просто медленно люблю 4.50 от 5 0 от общо 4 гласували.

    Михаил шуфутинский скачать клипы торрент

    Предлагаем Вам посмотреть онлайн новый клип 2014 Михаил Шуфутинский - Я просто медленно люблю, напоминаем для того чтобы скачать понравившийся клип в hd качестве с нашего ресурса Вам не нужен торрент, все видеоклипы можно скачать быстро и бесплатно на хорошей скорости, так же рекомендуем воспользоваться поиском по сайту что бы посмотреть онлайн или скачать клип не только Михаил Шуфутинский - Я просто медленно люблю, но и другие видео клипы популярных отечественных исполнителей.
    Пожалуйста, после просмотра или скачивания клипа Михаил Шуфутинский - Я просто медленно люблю оставьте свой комментарий или порекомендуйте этот видеоклип своим друзьям в соц. сетях

    Михаил шуфутинский скачать клипы торрент

    Виджет для Яндекса

    Михаил шуфутинский скачать клипы торрент Поставив виджет нашего сайта на своей странице Яндекс, вы всегда будете знать о выходе новых и интересных клипов.

    Наши группы

    Михаил шуфутинский скачать клипы торрентМихаил шуфутинский скачать клипы торрентМихаил шуфутинский скачать клипы торрент

    Михаил шуфутинский скачать клипы торрентМихаил шуфутинский скачать клипы торрентМихаил шуфутинский скачать клипы торрент

    Новые материалы Подписаться на новые клипы

    Подпишитесь на почтовую рассылку и получайте первыми сообщения о добавлении новых клипов на нашем сайте

    Copyright (c) 2011-2017 musical-video.net

    По вопросам размещения Ваших материалов на сайте обращайтесь на klip@musical-video.net

    Вход or Регистрация

    Михаил Шуфутинский - Концерт в Москве (1990) FLAC, Lossless - Chanson - скачать через торрент бесплатно

    REM GENRE Chanson
    REM DATE 1990
    REM DISCID 9E0AED0D
    REM COMMENT "ExactAudioCopy v1.0b3"
    PERFORMER "Михаил Шуфутинский"
    TITLE "Концерт в Москве"
    FILE "Михаил Шуфутинский • Концерт в Москве(CD1).flac" WAVE
    TRACK 01 AUDIO
    TITLE "Заходите к нам на огонёк"
    PERFORMER "Михаил Шуфутинский"
    INDEX 01 00:00:00
    TRACK 02 AUDIO
    TITLE "Приветствие"
    PERFORMER "Михаил Шуфутинский"
    INDEX 01 02:20:00
    TRACK 03 AUDIO
    TITLE "Казачий дон"
    PERFORMER "Михаил Шуфутинский"
    INDEX 00 02:42:49
    INDEX 01 02:42:50
    TRACK 04 AUDIO
    TITLE "Наливай, поговорим"
    PERFORMER "Михаил Шуфутинский"
    INDEX 00 06:07:74
    INDEX 01 06:08:00
    TRACK 05 AUDIO
    TITLE "Одесса-Мама"
    PERFORMER "Михаил Шуфутинский"
    INDEX 01 10:30:00
    TRACK 06 AUDIO
    TITLE "Нескучный сад"
    PERFORMER "Михаил Шуфутинский"
    INDEX 01 14:23:00
    TRACK 07 AUDIO
    TITLE "Ах, Сёма!"
    PERFORMER "Михаил Шуфутинский"
    INDEX 01 19:38:00
    TRACK 08 AUDIO
    TITLE "Моя Одесса"
    PERFORMER "Михаил Шуфутинский"
    INDEX 01 22:51:00
    TRACK 09 AUDIO
    TITLE "Скрипач Моня"
    PERFORMER "Михаил Шуфутинский"
    INDEX 01 27:39:30
    TRACK 10 AUDIO
    TITLE "Ну, играй"
    PERFORMER "Михаил Шуфутинский"
    INDEX 01 31:46:00
    TRACK 11 AUDIO
    TITLE "Люся"
    PERFORMER "Михаил Шуфутинский"
    INDEX 01 34:27:00
    TRACK 12 AUDIO
    TITLE "Белый аист"
    PERFORMER "Михаил Шуфутинский"
    INDEX 01 38:31:40
    TRACK 13 AUDIO
    TITLE "Путана"
    PERFORMER "Михаил Шуфутинский"
    INDEX 01 42:32:00

    Общее
    Полное имя. D:\Михаил Шуфутинский • Концерт в Москве\CD1\Михаил Шуфутинский • Концерт в Москве(CD1).flac
    Формат. FLAC
    Формат/Информация. Free Lossless Audio Codec
    Размер файла. 297 Мбайт
    Продолжительность. 46 м.
    Режим общего битрейта. Переменный
    Общий поток. 890 Кбит/сек
    Жанр. Chanson
    Дата записи. 1990

    Аудио
    Формат. FLAC
    Формат/Информация. Free Lossless Audio Codec
    Продолжительность. 46 м.
    Вид битрейта. Переменный
    Битрейт. 890 Кбит/сек
    Каналы. 2 канала
    Частота. 44,1 КГц
    Битовая глубина. 16 бит
    Размер потока. 297 Мбайт (100%)
    Библиотека кодирования. libFLAC 1.2.1 (UTC 2007-09-17)

    Удалён треск, артефакты, выровнены завалы по уровню звука!
    Сканы в релизе - неофициальные!

    REM GENRE Chanson
    REM DATE 1990
    REM DISCID 9B0AA10B
    REM COMMENT "ExactAudioCopy v1.0b3"
    PERFORMER "Михаил Шуфутинский"
    TITLE "Концерт в Москве"
    FILE "Михаил Шуфутинский • Концерт в Москве(CD2).flac" WAVE
    TRACK 01 AUDIO
    TITLE "Свечи"
    PERFORMER "Михаил Шуфутинский"
    INDEX 01 00:00:00
    TRACK 02 AUDIO
    TITLE "Ты у меня единственная"
    PERFORMER "Михаил Шуфутинский"
    INDEX 01 06:14:00
    TRACK 03 AUDIO
    TITLE "Амнистия"
    PERFORMER "Михаил Шуфутинский"
    INDEX 01 10:46:00
    TRACK 04 AUDIO
    TITLE "Пёрышки"
    PERFORMER "Михаил Шуфутинский"
    INDEX 01 15:14:00
    TRACK 05 AUDIO
    TITLE "Налётчики"
    PERFORMER "Михаил Шуфутинский"
    INDEX 01 17:30:00
    TRACK 06 AUDIO
    TITLE "Графиня"
    PERFORMER "Михаил Шуфутинский"
    INDEX 01 20:47:00
    TRACK 07 AUDIO
    TITLE "Зойка"
    PERFORMER "Михаил Шуфутинский"
    INDEX 01 25:06:00
    TRACK 08 AUDIO
    TITLE "Гоп-стоп"
    PERFORMER "Михаил Шуфутинский"
    INDEX 01 28:13:00
    TRACK 09 AUDIO
    TITLE "Карамболь"
    PERFORMER "Михаил Шуфутинский"
    INDEX 01 31:40:00
    TRACK 10 AUDIO
    TITLE "Утиная охота"
    PERFORMER "Михаил Шуфутинский"
    INDEX 01 34:35:00
    TRACK 11 AUDIO
    TITLE "Сингарелла"
    PERFORMER "Михаил Шуфутинский"
    INDEX 01 38:56:00

    Общее
    Полное имя. D:\Михаил Шуфутинский • Концерт в Москве\CD2\Михаил Шуфутинский • Концерт в Москве(CD2).flac
    Формат. FLAC
    Формат/Информация. Free Lossless Audio Codec
    Размер файла. 289 Мбайт
    Продолжительность. 45 м.
    Режим общего битрейта. Переменный
    Общий поток. 891 Кбит/сек
    Жанр. Chanson
    Дата записи. 1990

    Аудио
    Формат. FLAC
    Формат/Информация. Free Lossless Audio Codec
    Продолжительность. 45 м.
    Вид битрейта. Переменный
    Битрейт. 891 Кбит/сек
    Каналы. 2 канала
    Частота. 44,1 КГц
    Битовая глубина. 16 бит
    Размер потока. 289 Мбайт (100%)
    Библиотека кодирования. libFLAC 1.2.1 (UTC 2007-09-17)

    Удалён треск, артефакты, выровнены завалы по уровню звука!
    Сканы в релизе - неофициальные!

    Михаил шуфутинский клипы скачать с торрента по одному

    (2002-2012, Сборник) VA / Созвездие хитов. Шансон 1-9,11,12 (Шансон) [FLAC (image+.cue), lossless]

    [00:09] 01. Место встречи изменить нельзя - Чистосердечным раскаянием и своим признанием.

    [04:25] 02. Михаил Круг - Владимирский централ

    [00:07] 03. Место встречи изменить нельзя - Значится так, едем проверять всякие злачные места.

    [04:18] 04. Иван Кучин - В таверне

    [00:13] 05. Место встречи изменить нельзя - Дурилка картонная, обмануть хотел.

    [05:02] 06. Александр Новиков - Вези меня, извозчик

    [00:04] 07. Место встречи изменить нельзя - Ну, какие будут мнения, господа хорошие

    [03:51] 08. Михаил Шуфутинский - Наколочка

    [00:06] 09. Место встречи изменить нельзя - Дорисковался гадёныш, говорил я ему.

    [03:49] 10. Люба Успенская - Кабриолет

    [00:04] 11. Место встречи изменить нельзя - Указ 7-8 шьёшь, начальник

    [03:33] 12. Гарик Кричевский - Мой номер 245

    [00:04] 13. Место встречи изменить нельзя - Выпьем, закусим, о делах наших скорбных покалякаем

    [04:02] 14. Михаил Шуфутинский - Таганка

    [04:30] 15. Место встречи изменить нельзя - А чего ж сыграть-то? Мурку. Михаил Гулько - Мурка

    [00:04] 16. Место встречи изменить нельзя - Выражайся при даме поприличней, а то я тебя.

    [02:33] 17. Вилли Токарев - В шумном Балагане

    [00:07] 18. Место встречи изменить нельзя - Кошелёк, кошелёк, какой кошелёк.

    [03:39] 19. Аркадий Северный - Поспели вишни

    [00:05] 20. Место встречи изменить нельзя - Теперь горбатый, я сказал горбатый

    [03:27] 21. Анатолий Полотно - Лёнька Пантелеев

    [00:04] 22. Место встречи изменить нельзя - Да, гладко рассказываешь, дальше

    [02:38] 23. Владимир Асмолов - Осень Жизни

    [00:07] 24. Место встречи изменить нельзя - Очень искать в темной комнате чёрную кошку

    [04:13] 25. гр. Лесоповал - Я куплю тебе дом

    [00:07] 26. Место встречи изменить нельзя - Чистосердечная помощь следствию смягчает.

    [03:40] 27. Петлюра - Малолетка

    [00:08] 28. Место встречи изменить нельзя - Я вор в законе и дружков не предавал

    [03:28] 29. Сергей Наговицын - Дори-Дори

    [00:06] 30. Место встречи изменить нельзя - Ты не бойся, мы тебя не больно зарежем

    [05:36] 31. Евгений Кемеровский - Братва, не стреляйте друг в друга

    [00:05] 32. Место встречи изменить нельзя - Ну, здравствуй, мил человек, проходи.

    [05:00] 33. Катя Огонёк - Станция Хакинск

    [00:19] 34. Место встречи изменить нельзя - Выходить по-одному.


    Михаил шуфутинский скачать клипы торрент